  0
SECTION
  2
HEADER
  9
$ACADVER
  1
AC1015
  9
$ACADMAINTVER
 70
     6
  9
$DWGCODEPAGE
  3
ANSI_932
  9
$INSBASE
 10
0.0
 20
0.0
 30
0.0
  9
$EXTMIN
 10
-11.10052209477273
 20
-1.644188193383487
 30
0.0
  9
$EXTMAX
 10
180.7744779052272
 20
203.3969554321487
 30
0.0
  9
$LIMMIN
 10
0.0
 20
0.0
  9
$LIMMAX
 10
420.0
 20
297.0
  9
$ORTHOMODE
 70
     1
  9
$REGENMODE
 70
     1
  9
$FILLMODE
 70
     1
  9
$QTEXTMODE
 70
     0
  9
$MIRRTEXT
 70
     1
  9
$LTSCALE
 40
1.0
  9
$ATTMODE
 70
     1
  9
$TEXTSIZE
 40
2.5
  9
$TRACEWID
 40
1.0
  9
$TEXTSTYLE
  7
Standard
  9
$CLAYER
  8
0
  9
$CELTYPE
  6
ByLayer
  9
$CECOLOR
 62
   256
  9
$CELTSCALE
 40
1.0
  9
$DISPSILH
 70
     0
  9
$DIMSCALE
 40
1.0
  9
$DIMASZ
 40
2.0
  9
$DIMEXO
 40
2.0
  9
$DIMDLI
 40
3.75
  9
$DIMRND
 40
0.0
  9
$DIMDLE
 40
0.0
  9
$DIMEXE
 40
0.5
  9
$DIMTP
 40
0.0
  9
$DIMTM
 40
0.0
  9
$DIMTXT
 40
2.5
  9
$DIMCEN
 40
2.0
  9
$DIMTSZ
 40
0.0
  9
$DIMTOL
 70
     0
  9
$DIMLIM
 70
     0
  9
$DIMTIH
 70
     0
  9
$DIMTOH
 70
     0
  9
$DIMSE1
 70
     0
  9
$DIMSE2
 70
     0
  9
$DIMTAD
 70
     1
  9
$DIMZIN
 70
     8
  9
$DIMBLK
  1

  9
$DIMASO
 70
     1
  9
$DIMSHO
 70
     1
  9
$DIMPOST
  1

  9
$DIMAPOST
  1

  9
$DIMALT
 70
     0
  9
$DIMALTD
 70
     3
  9
$DIMALTF
 40
0.03937007874016
  9
$DIMLFAC
 40
1.0
  9
$DIMTOFL
 70
     1
  9
$DIMTVP
 40
0.0
  9
$DIMTIX
 70
     1
  9
$DIMSOXD
 70
     1
  9
$DIMSAH
 70
     0
  9
$DIMBLK1
  1

  9
$DIMBLK2
  1

  9
$DIMSTYLE
  2
ISO-25 1／10
  9
$DIMCLRD
 70
     0
  9
$DIMCLRE
 70
     0
  9
$DIMCLRT
 70
     0
  9
$DIMTFAC
 40
1.0
  9
$DIMGAP
 40
0.75
  9
$DIMJUST
 70
     0
  9
$DIMSD1
 70
     0
  9
$DIMSD2
 70
     0
  9
$DIMTOLJ
 70
     0
  9
$DIMTZIN
 70
     8
  9
$DIMALTZ
 70
     0
  9
$DIMALTTZ
 70
     0
  9
$DIMUPT
 70
     0
  9
$DIMDEC
 70
     8
  9
$DIMTDEC
 70
     8
  9
$DIMALTU
 70
     2
  9
$DIMALTTD
 70
     3
  9
$DIMTXSTY
  7
Standard
  9
$DIMAUNIT
 70
     0
  9
$DIMADEC
 70
     0
  9
$DIMALTRND
 40
0.0
  9
$DIMAZIN
 70
     0
  9
$DIMDSEP
 70
    46
  9
$DIMATFIT
 70
     3
  9
$DIMFRAC
 70
     0
  9
$DIMLDRBLK
  1

  9
$DIMLUNIT
 70
     2
  9
$DIMLWD
 70
    -2
  9
$DIMLWE
 70
    -2
  9
$DIMTMOVE
 70
     0
  9
$LUNITS
 70
     2
  9
$LUPREC
 70
     4
  9
$SKETCHINC
 40
1.0
  9
$FILLETRAD
 40
4.0
  9
$AUNITS
 70
     0
  9
$AUPREC
 70
     0
  9
$MENU
  1
.
  9
$ELEVATION
 40
0.0
  9
$PELEVATION
 40
0.0
  9
$THICKNESS
 40
0.0
  9
$LIMCHECK
 70
     0
  9
$CHAMFERA
 40
0.6
  9
$CHAMFERB
 40
0.6
  9
$CHAMFERC
 40
20.0
  9
$CHAMFERD
 40
0.0
  9
$SKPOLY
 70
     0
  9
$TDCREATE
 40
2460404.697397199
  9
$TDUCREATE
 40
2460404.322397199
  9
$TDUPDATE
 40
2460406.406049131
  9
$TDUUPDATE
 40
2460406.031049132
  9
$TDINDWG
 40
0.0641462847
  9
$TDUSRTIMER
 40
0.0641462847
  9
$USRTIMER
 70
     1
  9
$ANGBASE
 50
0.0
  9
$ANGDIR
 70
     0
  9
$PDMODE
 70
     0
  9
$PDSIZE
 40
0.0
  9
$PLINEWID
 40
0.0
  9
$SPLFRAME
 70
     0
  9
$SPLINETYPE
 70
     6
  9
$SPLINESEGS
 70
     8
  9
$HANDSEED
  5
A7C
  9
$SURFTAB1
 70
     6
  9
$SURFTAB2
 70
     6
  9
$SURFTYPE
 70
     6
  9
$SURFU
 70
     6
  9
$SURFV
 70
     6
  9
$UCSBASE
  2

  9
$UCSNAME
  2

  9
$UCSORG
 10
0.0
 20
0.0
 30
0.0
  9
$UCSXDIR
 10
1.0
 20
0.0
 30
0.0
  9
$UCSYDIR
 10
0.0
 20
1.0
 30
0.0
  9
$UCSORTHOREF
  2

  9
$UCSORTHOVIEW
 70
     0
  9
$UCSORGTOP
 10
0.0
 20
0.0
 30
0.0
  9
$UCSORGBOTTOM
 10
0.0
 20
0.0
 30
0.0
  9
$UCSORGLEFT
 10
0.0
 20
0.0
 30
0.0
  9
$UCSORGRIGHT
 10
0.0
 20
0.0
 30
0.0
  9
$UCSORGFRONT
 10
0.0
 20
0.0
 30
0.0
  9
$UCSORGBACK
 10
0.0
 20
0.0
 30
0.0
  9
$PUCSBASE
  2

  9
$PUCSNAME
  2

  9
$PUCSORG
 10
0.0
 20
0.0
 30
0.0
  9
$PUCSXDIR
 10
1.0
 20
0.0
 30
0.0
  9
$PUCSYDIR
 10
0.0
 20
1.0
 30
0.0
  9
$PUCSORTHOREF
  2

  9
$PUCSORTHOVIEW
 70
     0
  9
$PUCSORGTOP
 10
0.0
 20
0.0
 30
0.0
  9
$PUCSORGBOTTOM
 10
0.0
 20
0.0
 30
0.0
  9
$PUCSORGLEFT
 10
0.0
 20
0.0
 30
0.0
  9
$PUCSORGRIGHT
 10
0.0
 20
0.0
 30
0.0
  9
$PUCSORGFRONT
 10
0.0
 20
0.0
 30
0.0
  9
$PUCSORGBACK
 10
0.0
 20
0.0
 30
0.0
  9
$USERI1
 70
     0
  9
$USERI2
 70
     0
  9
$USERI3
 70
     0
  9
$USERI4
 70
     0
  9
$USERI5
 70
     0
  9
$USERR1
 40
0.0
  9
$USERR2
 40
0.0
  9
$USERR3
 40
0.0
  9
$USERR4
 40
0.0
  9
$USERR5
 40
0.0
  9
$WORLDVIEW
 70
     1
  9
$SHADEDGE
 70
     3
  9
$SHADEDIF
 70
    70
  9
$TILEMODE
 70
     1
  9
$MAXACTVP
 70
    64
  9
$PINSBASE
 10
0.0
 20
0.0
 30
0.0
  9
$PLIMCHECK
 70
     0
  9
$PEXTMIN
 10
1.000000000000000E+20
 20
1.000000000000000E+20
 30
1.000000000000000E+20
  9
$PEXTMAX
 10
-1.000000000000000E+20
 20
-1.000000000000000E+20
 30
-1.000000000000000E+20
  9
$PLIMMIN
 10
0.0
 20
0.0
  9
$PLIMMAX
 10
420.0
 20
297.0
  9
$UNITMODE
 70
     0
  9
$VISRETAIN
 70
     1
  9
$PLINEGEN
 70
     0
  9
$PSLTSCALE
 70
     1
  9
$TREEDEPTH
 70
  3020
  9
$CMLSTYLE
  2
Standard
  9
$CMLJUST
 70
     0
  9
$CMLSCALE
 40
20.0
  9
$PROXYGRAPHICS
 70
     1
  9
$MEASUREMENT
 70
     1
  9
$CELWEIGHT
370
    -1
  9
$ENDCAPS
280
     0
  9
$JOINSTYLE
280
     0
  9
$LWDISPLAY
290
     0
  9
$INSUNITS
 70
     4
  9
$HYPERLINKBASE
  1

  9
$STYLESHEET
  1

  9
$XEDIT
290
     1
  9
$CEPSNTYPE
380
     0
  9
$PSTYLEMODE
290
     1
  9
$FINGERPRINTGUID
  2
{FDEAD578-A652-11D2-9A35-0060089B3A3F}
  9
$VERSIONGUID
  2
{DC580351-1B72-4BEE-B44A-46C44CE7B8FC}
  9
$EXTNAMES
290
     1
  9
$PSVPSCALE
 40
0.0
  9
$OLESTARTUP
290
     0
  0
ENDSEC
  0
SECTION
  2
CLASSES
  0
CLASS
  1
ACDBDICTIONARYWDFLT
  2
AcDbDictionaryWithDefault
  3
AutoCAD 2000
 90
        0
280
     0
281
     0
  0
CLASS
  1
ACDBPLACEHOLDER
  2
AcDbPlaceHolder
  3
AutoCAD 2000
 90
        0
280
     0
281
     0
  0
CLASS
  1
LAYOUT
  2
AcDbLayout
  3
AutoCAD 2000
 90
        0
280
     0
281
     0
  0
ENDSEC
  0
SECTION
  2
TABLES
  0
TABLE
  2
VPORT
  5
8
330
0
100
AcDbSymbolTable
 70
     2
  0
VPORT
  5
A7B
330
8
100
AcDbSymbolTableRecord
100
AcDbViewportTableRecord
  2
*Active
 70
     0
 10
0.0
 20
0.0
 11
1.0
 21
1.0
 12
143.8412959273089
 22
126.6408884343104
 13
0.0
 23
0.0
 14
10.0
 24
10.0
 15
10.0
 25
10.0
 16
0.0
 26
0.0
 36
1.0
 17
0.0
 27
0.0
 37
0.0
 40
269.8677545052996
 41
2.165492957746478
 42
50.0
 43
0.0
 44
0.0
 50
0.0
 51
0.0
 71
     0
 72
   100
 73
     1
 74
     3
 75
     0
 76
     0
 77
     0
 78
     0
281
     0
 65
     1
110
0.0
120
0.0
130
0.0
111
1.0
121
0.0
131
0.0
112
0.0
122
1.0
132
0.0
 79
     0
146
0.0
  0
ENDTAB
  0
TABLE
  2
LTYPE
  5
5
330
0
100
AcDbSymbolTable
 70
     1
  0
LTYPE
  5
14
330
5
100
AcDbSymbolTableRecord
100
AcDbLinetypeTableRecord
  2
ByBlock
 70
     0
  3

 72
    65
 73
     0
 40
0.0
  0
LTYPE
  5
15
330
5
100
AcDbSymbolTableRecord
100
AcDbLinetypeTableRecord
  2
ByLayer
 70
     0
  3

 72
    65
 73
     0
 40
0.0
  0
LTYPE
  5
16
330
5
100
AcDbSymbolTableRecord
100
AcDbLinetypeTableRecord
  2
Continuous
 70
     0
  3
Solid line
 72
    65
 73
     0
 40
0.0
  0
ENDTAB
  0
TABLE
  2
LAYER
  5
2
102
{ACAD_XDICTIONARY
360
44
102
}
330
0
100
AcDbSymbolTable
 70
     4
  0
LAYER
  5
10
330
2
100
AcDbSymbolTableRecord
100
AcDbLayerTableRecord
  2
0
 70
     0
 62
     7
  6
Continuous
370
    -3
390
F
  0
LAYER
  5
33C
330
2
100
AcDbSymbolTableRecord
100
AcDbLayerTableRecord
  2
Defpoints
 70
     0
 62
     2
  6
Continuous
290
     0
370
    -3
390
F
  0
LAYER
  5
33D
330
2
100
AcDbSymbolTableRecord
100
AcDbLayerTableRecord
  2
寸法
 70
     0
 62
     6
  6
Continuous
370
    -3
390
F
  0
LAYER
  5
33E
330
2
100
AcDbSymbolTableRecord
100
AcDbLayerTableRecord
  2
文字
 70
     0
 62
    30
  6
Continuous
370
    -3
390
F
  0
ENDTAB
  0
TABLE
  2
STYLE
  5
3
330
0
100
AcDbSymbolTable
 70
     1
  0
STYLE
  5
11
330
3
100
AcDbSymbolTableRecord
100
AcDbTextStyleTableRecord
  2
Standard
 70
     0
 40
0.0
 41
1.0
 50
0.0
 71
     0
 42
2.5
  3
MS PGothic.ttf
  4

1001
ACAD
1000
MS PGothic
1071
    32818
  0
ENDTAB
  0
TABLE
  2
VIEW
  5
6
330
0
100
AcDbSymbolTable
 70
     0
  0
ENDTAB
  0
TABLE
  2
UCS
  5
7
330
0
100
AcDbSymbolTable
 70
     0
  0
ENDTAB
  0
TABLE
  2
APPID
  5
9
330
0
100
AcDbSymbolTable
 70
     1
  0
APPID
  5
12
330
9
100
AcDbSymbolTableRecord
100
AcDbRegAppTableRecord
  2
ACAD
 70
     0
  0
ENDTAB
  0
TABLE
  2
DIMSTYLE
  5
A
330
0
100
AcDbSymbolTable
 70
     2
100
AcDbDimStyleTable
 71
     1
340
340
  0
DIMSTYLE
105
33F
330
A
100
AcDbSymbolTableRecord
100
AcDbDimStyleTableRecord
  2
Standard
 70
     0
289
     0
340
11
  0
DIMSTYLE
105
340
102
{ACAD_REACTORS
330
956
330
976
330
975
330
9AA
330
9AC
330
9E5
330
A0D
330
A23
330
A42
330
A61
102
}
330
A
100
AcDbSymbolTableRecord
100
AcDbDimStyleTableRecord
  2
ISO-25 1／10
 70
     0
 41
2.0
 42
2.0
 43
3.75
 44
0.5
 73
     0
 74
     0
 77
     1
 78
     8
140
2.5
141
2.0
143
0.03937007874016
147
0.75
171
     3
172
     1
174
     1
175
     1
271
     8
272
     8
274
     3
283
     0
284
     8
340
11
  0
ENDTAB
  0
TABLE
  2
BLOCK_RECORD
  5
1
330
0
100
AcDbSymbolTable
 70
    11
  0
BLOCK_RECORD
  5
1F
330
1
100
AcDbSymbolTableRecord
100
AcDbBlockTableRecord
  2
*Model_Space
340
22
  0
BLOCK_RECORD
  5
1B
330
1
100
AcDbSymbolTableRecord
100
AcDbBlockTableRecord
  2
*Paper_Space
340
1E
  0
BLOCK_RECORD
  5
23
330
1
100
AcDbSymbolTableRecord
100
AcDbBlockTableRecord
  2
*Paper_Space0
340
26
  0
BLOCK_RECORD
  5
957
330
1
100
AcDbSymbolTableRecord
100
AcDbBlockTableRecord
  2
*D1
340
0
  0
BLOCK_RECORD
  5
977
330
1
100
AcDbSymbolTableRecord
100
AcDbBlockTableRecord
  2
*D2
340
0
  0
BLOCK_RECORD
  5
983
330
1
100
AcDbSymbolTableRecord
100
AcDbBlockTableRecord
  2
*D3
340
0
  0
BLOCK_RECORD
  5
9AF
330
1
100
AcDbSymbolTableRecord
100
AcDbBlockTableRecord
  2
*D4
340
0
  0
BLOCK_RECORD
  5
9BB
330
1
100
AcDbSymbolTableRecord
100
AcDbBlockTableRecord
  2
*D5
340
0
  0
BLOCK_RECORD
  5
9E6
330
1
100
AcDbSymbolTableRecord
100
AcDbBlockTableRecord
  2
*D6
340
0
  0
BLOCK_RECORD
  5
A0E
330
1
100
AcDbSymbolTableRecord
100
AcDbBlockTableRecord
  2
*D7
340
0
  0
BLOCK_RECORD
  5
A24
330
1
100
AcDbSymbolTableRecord
100
AcDbBlockTableRecord
  2
*D8
340
0
  0
BLOCK_RECORD
  5
A43
330
1
100
AcDbSymbolTableRecord
100
AcDbBlockTableRecord
  2
*D9
340
0
  0
BLOCK_RECORD
  5
A62
330
1
100
AcDbSymbolTableRecord
100
AcDbBlockTableRecord
  2
*D10
340
0
  0
ENDTAB
  0
ENDSEC
  0
SECTION
  2
BLOCKS
  0
BLOCK
  5
20
330
1F
100
AcDbEntity
  8
0
100
AcDbBlockBegin
  2
*Model_Space
 70
     0
 10
0.0
 20
0.0
 30
0.0
  3
*Model_Space
  1

  0
ENDBLK
  5
21
330
1F
100
AcDbEntity
  8
0
100
AcDbBlockEnd
  0
BLOCK
  5
1C
330
1B
100
AcDbEntity
 67
     1
  8
0
100
AcDbBlockBegin
  2
*Paper_Space
 70
     0
 10
0.0
 20
0.0
 30
0.0
  3
*Paper_Space
  1

  0
ENDBLK
  5
1D
330
1B
100
AcDbEntity
 67
     1
  8
0
100
AcDbBlockEnd
  0
BLOCK
  5
24
330
23
100
AcDbEntity
  8
0
100
AcDbBlockBegin
  2
*Paper_Space0
 70
     0
 10
0.0
 20
0.0
 30
0.0
  3
*Paper_Space0
  1

  0
ENDBLK
  5
25
330
23
100
AcDbEntity
  8
0
100
AcDbBlockEnd
  0
BLOCK
  5
961
330
957
100
AcDbEntity
  8
0
100
AcDbBlockBegin
  2
*D1
 70
     1
 10
0.0
 20
0.0
 30
0.0
  3
*D1
  1

  0
LINE
  5
96C
330
957
100
AcDbEntity
  8
寸法
 62
     0
370
    -2
100
AcDbLine
 10
77.77447790522728
 20
135.6288520610533
 30
0.0
 11
70.27447790522728
 21
135.6288520610533
 31
0.0
  0
LINE
  5
96D
330
957
100
AcDbEntity
  8
寸法
 62
     0
370
    -2
100
AcDbLine
 10
73.77447790522729
 20
110.6288520610533
 30
0.0
 11
70.27447790522728
 21
110.6288520610533
 31
0.0
  0
LINE
  5
96E
330
957
100
AcDbEntity
  8
寸法
 62
     0
370
    -2
100
AcDbLine
 10
70.77447790522729
 20
133.6288520610533
 30
0.0
 11
70.77447790522729
 21
112.6288520610532
 31
0.0
  0
SOLID
  5
96F
330
957
100
AcDbEntity
  8
寸法
 62
     0
100
AcDbTrace
 10
70.44114457189396
 20
133.6288520610533
 30
0.0
 11
71.10781123856061
 21
133.6288520610533
 31
0.0
 12
70.77447790522729
 22
135.6288520610533
 32
0.0
 13
70.77447790522729
 23
135.6288520610533
 33
0.0
  0
SOLID
  5
970
330
957
100
AcDbEntity
  8
寸法
 62
     0
100
AcDbTrace
 10
70.44114457189396
 20
112.6288520610532
 30
0.0
 11
71.10781123856061
 21
112.6288520610532
 31
0.0
 12
70.77447790522729
 22
110.6288520610533
 32
0.0
 13
70.77447790522729
 23
110.6288520610533
 33
0.0
  0
MTEXT
  5
971
330
957
100
AcDbEntity
  8
寸法
 62
     0
370
    13
100
AcDbMText
 10
68.77447790522727
 20
123.1288520610533
 30
0.0
 40
2.5
 41
0.0
 71
     5
 72
     1
  1
25
 11
0.0000000000000001
 21
1.0
 31
0.0
 73
     1
 44
1.0
  0
POINT
  5
972
330
957
100
AcDbEntity
  8
Defpoints
 62
     0
100
AcDbPoint
 10
79.77447790522728
 20
135.6288520610533
 30
0.0
  0
POINT
  5
973
330
957
100
AcDbEntity
  8
Defpoints
 62
     0
100
AcDbPoint
 10
75.77447790522729
 20
110.6288520610533
 30
0.0
  0
POINT
  5
974
330
957
100
AcDbEntity
  8
Defpoints
 62
     0
100
AcDbPoint
 10
70.77447790522729
 20
110.6288520610533
 30
0.0
  0
ENDBLK
  5
962
330
957
100
AcDbEntity
  8
0
100
AcDbBlockEnd
  0
BLOCK
  5
981
330
977
100
AcDbEntity
  8
0
100
AcDbBlockBegin
  2
*D2
 70
     1
 10
0.0
 20
0.0
 30
0.0
  3
*D2
  1

  0
LINE
  5
98F
330
977
100
AcDbEntity
  8
寸法
 62
     0
370
    -2
100
AcDbLine
 10
73.77447790522729
 20
194.5219554321487
 30
0.0
 11
70.27447790522728
 21
194.5219554321487
 31
0.0
  0
LINE
  5
990
330
977
100
AcDbEntity
  8
寸法
 62
     0
370
    -2
100
AcDbLine
 10
73.77447790522729
 20
166.5219554321487
 30
0.0
 11
70.27447790522728
 21
166.5219554321487
 31
0.0
  0
LINE
  5
991
330
977
100
AcDbEntity
  8
寸法
 62
     0
370
    -2
100
AcDbLine
 10
70.77447790522729
 20
192.5219554321487
 30
0.0
 11
70.77447790522729
 21
168.5219554321487
 31
0.0
  0
SOLID
  5
992
330
977
100
AcDbEntity
  8
寸法
 62
     0
100
AcDbTrace
 10
70.44114457189396
 20
192.5219554321487
 30
0.0
 11
71.10781123856061
 21
192.5219554321487
 31
0.0
 12
70.77447790522729
 22
194.5219554321487
 32
0.0
 13
70.77447790522729
 23
194.5219554321487
 33
0.0
  0
SOLID
  5
993
330
977
100
AcDbEntity
  8
寸法
 62
     0
100
AcDbTrace
 10
70.44114457189396
 20
168.5219554321487
 30
0.0
 11
71.10781123856061
 21
168.5219554321487
 31
0.0
 12
70.77447790522729
 22
166.5219554321487
 32
0.0
 13
70.77447790522729
 23
166.5219554321487
 33
0.0
  0
MTEXT
  5
994
330
977
100
AcDbEntity
  8
寸法
 62
     0
370
    13
100
AcDbMText
 10
68.77447790522726
 20
180.5219554321487
 30
0.0
 40
2.5
 41
0.0
 71
     5
 72
     1
  1
28
 11
0.0000000000000001
 21
1.0
 31
0.0
 73
     1
 44
1.0
  0
POINT
  5
995
330
977
100
AcDbEntity
  8
Defpoints
 62
     0
100
AcDbPoint
 10
75.77447790522729
 20
194.5219554321487
 30
0.0
  0
POINT
  5
996
330
977
100
AcDbEntity
  8
Defpoints
 62
     0
100
AcDbPoint
 10
75.77447790522729
 20
166.5219554321487
 30
0.0
  0
POINT
  5
997
330
977
100
AcDbEntity
  8
Defpoints
 62
     0
100
AcDbPoint
 10
70.77447790522729
 20
166.5219554321487
 30
0.0
  0
ENDBLK
  5
982
330
977
100
AcDbEntity
  8
0
100
AcDbBlockEnd
  0
BLOCK
  5
98D
330
983
100
AcDbEntity
  8
0
100
AcDbBlockBegin
  2
*D3
 70
     1
 10
0.0
 20
0.0
 30
0.0
  3
*D3
  1

  0
LINE
  5
9A1
330
983
100
AcDbEntity
  8
寸法
 62
     0
370
    -2
100
AcDbLine
 10
102.7744779052272
 20
196.5219554321487
 30
0.0
 11
102.7744779052272
 21
200.0219554321487
 31
0.0
  0
LINE
  5
9A2
330
983
100
AcDbEntity
  8
寸法
 62
     0
370
    -2
100
AcDbLine
 10
75.77447790522729
 20
196.5219554321487
 30
0.0
 11
75.77447790522729
 21
200.0219554321487
 31
0.0
  0
LINE
  5
9A3
330
983
100
AcDbEntity
  8
寸法
 62
     0
370
    -2
100
AcDbLine
 10
100.7744779052272
 20
199.5219554321487
 30
0.0
 11
77.77447790522728
 21
199.5219554321487
 31
0.0
  0
SOLID
  5
9A4
330
983
100
AcDbEntity
  8
寸法
 62
     0
100
AcDbTrace
 10
100.7744779052272
 20
199.855288765482
 30
0.0
 11
100.7744779052272
 21
199.1886220988153
 31
0.0
 12
102.7744779052272
 22
199.5219554321487
 32
0.0
 13
102.7744779052272
 23
199.5219554321487
 33
0.0
  0
SOLID
  5
9A5
330
983
100
AcDbEntity
  8
寸法
 62
     0
100
AcDbTrace
 10
77.77447790522728
 20
199.855288765482
 30
0.0
 11
77.77447790522728
 21
199.1886220988153
 31
0.0
 12
75.77447790522729
 22
199.5219554321487
 32
0.0
 13
75.77447790522729
 23
199.5219554321487
 33
0.0
  0
MTEXT
  5
9A6
330
983
100
AcDbEntity
  8
寸法
 62
     0
370
    13
100
AcDbMText
 10
89.27447790522728
 20
201.5219554321487
 30
0.0
 40
2.5
 41
0.0
 71
     5
 72
     1
  1
27
 73
     1
 44
1.0
  0
POINT
  5
9A7
330
983
100
AcDbEntity
  8
Defpoints
 62
     0
100
AcDbPoint
 10
102.7744779052272
 20
194.5219554321487
 30
0.0
  0
POINT
  5
9A8
330
983
100
AcDbEntity
  8
Defpoints
 62
     0
100
AcDbPoint
 10
75.77447790522729
 20
194.5219554321487
 30
0.0
  0
POINT
  5
9A9
330
983
100
AcDbEntity
  8
Defpoints
 62
     0
100
AcDbPoint
 10
75.77447790522729
 20
199.5219554321487
 30
0.0
  0
ENDBLK
  5
98E
330
983
100
AcDbEntity
  8
0
100
AcDbBlockEnd
  0
BLOCK
  5
9B9
330
9AF
100
AcDbEntity
  8
0
100
AcDbBlockBegin
  2
*D4
 70
     1
 10
0.0
 20
0.0
 30
0.0
  3
*D4
  1

  0
LINE
  5
9C7
330
9AF
100
AcDbEntity
  8
寸法
 62
     0
370
    -2
100
AcDbLine
 10
102.7744779052272
 20
49.73574868995791
 30
0.0
 11
102.7744779052272
 21
46.23574868995791
 31
0.0
  0
LINE
  5
9C8
330
9AF
100
AcDbEntity
  8
寸法
 62
     0
370
    -2
100
AcDbLine
 10
75.77447790522729
 20
49.73574868995791
 30
0.0
 11
75.77447790522729
 21
46.23574868995791
 31
0.0
  0
LINE
  5
9C9
330
9AF
100
AcDbEntity
  8
寸法
 62
     0
370
    -2
100
AcDbLine
 10
100.7744779052272
 20
46.73574868995792
 30
0.0
 11
77.77447790522728
 21
46.73574868995792
 31
0.0
  0
SOLID
  5
9CA
330
9AF
100
AcDbEntity
  8
寸法
 62
     0
100
AcDbTrace
 10
100.7744779052272
 20
47.06908202329125
 30
0.0
 11
100.7744779052272
 21
46.40241535662458
 31
0.0
 12
102.7744779052272
 22
46.73574868995792
 32
0.0
 13
102.7744779052272
 23
46.73574868995792
 33
0.0
  0
SOLID
  5
9CB
330
9AF
100
AcDbEntity
  8
寸法
 62
     0
100
AcDbTrace
 10
77.77447790522728
 20
47.06908202329125
 30
0.0
 11
77.77447790522728
 21
46.40241535662458
 31
0.0
 12
75.77447790522729
 22
46.73574868995792
 32
0.0
 13
75.77447790522729
 23
46.73574868995792
 33
0.0
  0
MTEXT
  5
9CC
330
9AF
100
AcDbEntity
  8
寸法
 62
     0
370
    13
100
AcDbMText
 10
89.27447790522728
 20
48.73574868995792
 30
0.0
 40
2.5
 41
0.0
 71
     5
 72
     1
  1
27
 73
     1
 44
1.0
  0
POINT
  5
9CD
330
9AF
100
AcDbEntity
  8
Defpoints
 62
     0
100
AcDbPoint
 10
102.7744779052272
 20
51.73574868995792
 30
0.0
  0
POINT
  5
9CE
330
9AF
100
AcDbEntity
  8
Defpoints
 62
     0
100
AcDbPoint
 10
75.77447790522729
 20
51.73574868995792
 30
0.0
  0
POINT
  5
9CF
330
9AF
100
AcDbEntity
  8
Defpoints
 62
     0
100
AcDbPoint
 10
75.77447790522729
 20
46.73574868995792
 30
0.0
  0
ENDBLK
  5
9BA
330
9AF
100
AcDbEntity
  8
0
100
AcDbBlockEnd
  0
BLOCK
  5
9C5
330
9BB
100
AcDbEntity
  8
0
100
AcDbBlockBegin
  2
*D5
 70
     1
 10
0.0
 20
0.0
 30
0.0
  3
*D5
  1

  0
LINE
  5
9D0
330
9BB
100
AcDbEntity
  8
寸法
 62
     0
370
    -2
100
AcDbLine
 10
73.77447790522729
 20
51.73574868995792
 30
0.0
 11
70.27447790522728
 21
51.73574868995792
 31
0.0
  0
LINE
  5
9D1
330
9BB
100
AcDbEntity
  8
寸法
 62
     0
370
    -2
100
AcDbLine
 10
73.77447790522729
 20
79.73574868995791
 30
0.0
 11
70.27447790522728
 21
79.73574868995791
 31
0.0
  0
LINE
  5
9D2
330
9BB
100
AcDbEntity
  8
寸法
 62
     0
370
    -2
100
AcDbLine
 10
70.77447790522729
 20
53.73574868995792
 30
0.0
 11
70.77447790522729
 21
77.73574868995791
 31
0.0
  0
SOLID
  5
9D3
330
9BB
100
AcDbEntity
  8
寸法
 62
     0
100
AcDbTrace
 10
70.44114457189396
 20
53.73574868995792
 30
0.0
 11
71.10781123856061
 21
53.73574868995792
 31
0.0
 12
70.77447790522729
 22
51.73574868995792
 32
0.0
 13
70.77447790522729
 23
51.73574868995792
 33
0.0
  0
SOLID
  5
9D4
330
9BB
100
AcDbEntity
  8
寸法
 62
     0
100
AcDbTrace
 10
70.44114457189396
 20
77.73574868995791
 30
0.0
 11
71.10781123856061
 21
77.73574868995791
 31
0.0
 12
70.77447790522729
 22
79.73574868995791
 32
0.0
 13
70.77447790522729
 23
79.73574868995791
 33
0.0
  0
MTEXT
  5
9D5
330
9BB
100
AcDbEntity
  8
寸法
 62
     0
370
    13
100
AcDbMText
 10
68.77447790522727
 20
65.73574868995793
 30
0.0
 40
2.5
 41
0.0
 71
     5
 72
     1
  1
28
 11
0.0000000000000001
 21
1.0
 31
0.0
 73
     1
 44
1.0
  0
POINT
  5
9D6
330
9BB
100
AcDbEntity
  8
Defpoints
 62
     0
100
AcDbPoint
 10
75.77447790522729
 20
51.73574868995792
 30
0.0
  0
POINT
  5
9D7
330
9BB
100
AcDbEntity
  8
Defpoints
 62
     0
100
AcDbPoint
 10
75.77447790522729
 20
79.73574868995791
 30
0.0
  0
POINT
  5
9D8
330
9BB
100
AcDbEntity
  8
Defpoints
 62
     0
100
AcDbPoint
 10
70.77447790522729
 20
79.73574868995791
 30
0.0
  0
ENDBLK
  5
9C6
330
9BB
100
AcDbEntity
  8
0
100
AcDbBlockEnd
  0
BLOCK
  5
9F0
330
9E6
100
AcDbEntity
  8
0
100
AcDbBlockBegin
  2
*D6
 70
     1
 10
0.0
 20
0.0
 30
0.0
  3
*D6
  1

  0
LINE
  5
A04
330
9E6
100
AcDbEntity
  8
寸法
 62
     0
370
    -2
100
AcDbLine
 10
25.77447790522728
 20
108.6288520610533
 30
0.0
 11
25.77447790522728
 21
105.1288520610532
 31
0.0
  0
LINE
  5
A05
330
9E6
100
AcDbEntity
  8
寸法
 62
     0
370
    -2
100
AcDbLine
 10
-2.225522094772713
 20
108.6288520610533
 30
0.0
 11
-2.225522094772714
 21
105.1288520610532
 31
0.0
  0
LINE
  5
A06
330
9E6
100
AcDbEntity
  8
寸法
 62
     0
370
    -2
100
AcDbLine
 10
23.77447790522728
 20
105.6288520610533
 30
0.0
 11
-0.2255220947727143
 21
105.6288520610533
 31
0.0
  0
SOLID
  5
A07
330
9E6
100
AcDbEntity
  8
寸法
 62
     0
100
AcDbTrace
 10
23.77447790522728
 20
105.9621853943866
 30
0.0
 11
23.77447790522728
 21
105.2955187277199
 31
0.0
 12
25.77447790522728
 22
105.6288520610533
 32
0.0
 13
25.77447790522728
 23
105.6288520610533
 33
0.0
  0
SOLID
  5
A08
330
9E6
100
AcDbEntity
  8
寸法
 62
     0
100
AcDbTrace
 10
-0.2255220947727143
 20
105.9621853943866
 30
0.0
 11
-0.2255220947727143
 21
105.2955187277199
 31
0.0
 12
-2.225522094772714
 22
105.6288520610533
 32
0.0
 13
-2.225522094772714
 23
105.6288520610533
 33
0.0
  0
MTEXT
  5
A09
330
9E6
100
AcDbEntity
  8
寸法
 62
     0
370
    13
100
AcDbMText
 10
11.77447790522728
 20
107.6288520610533
 30
0.0
 40
2.5
 41
0.0
 71
     5
 72
     1
  1
28
 73
     1
 44
1.0
  0
POINT
  5
A0A
330
9E6
100
AcDbEntity
  8
Defpoints
 62
     0
100
AcDbPoint
 10
25.77447790522728
 20
110.6288520610533
 30
0.0
  0
POINT
  5
A0B
330
9E6
100
AcDbEntity
  8
Defpoints
 62
     0
100
AcDbPoint
 10
-2.225522094772713
 20
110.6288520610533
 30
0.0
  0
POINT
  5
A0C
330
9E6
100
AcDbEntity
  8
Defpoints
 62
     0
100
AcDbPoint
 10
-2.225522094772714
 20
105.6288520610533
 30
0.0
  0
ENDBLK
  5
9F1
330
9E6
100
AcDbEntity
  8
0
100
AcDbBlockEnd
  0
BLOCK
  5
A18
330
A0E
100
AcDbEntity
  8
0
100
AcDbBlockBegin
  2
*D7
 70
     1
 10
0.0
 20
0.0
 30
0.0
  3
*D7
  1

  0
LINE
  5
A1A
330
A0E
100
AcDbEntity
  8
寸法
 62
     0
370
    -2
100
AcDbLine
 10
180.7744779052272
 20
108.6288520610533
 30
0.0
 11
180.7744779052272
 21
105.1288520610532
 31
0.0
  0
LINE
  5
A1B
330
A0E
100
AcDbEntity
  8
寸法
 62
     0
370
    -2
100
AcDbLine
 10
152.7744779052272
 20
108.6288520610533
 30
0.0
 11
152.7744779052272
 21
105.1288520610532
 31
0.0
  0
LINE
  5
A1C
330
A0E
100
AcDbEntity
  8
寸法
 62
     0
370
    -2
100
AcDbLine
 10
178.7744779052272
 20
105.6288520610533
 30
0.0
 11
154.7744779052272
 21
105.6288520610533
 31
0.0
  0
SOLID
  5
A1D
330
A0E
100
AcDbEntity
  8
寸法
 62
     0
100
AcDbTrace
 10
178.7744779052272
 20
105.9621853943866
 30
0.0
 11
178.7744779052272
 21
105.2955187277199
 31
0.0
 12
180.7744779052272
 22
105.6288520610533
 32
0.0
 13
180.7744779052272
 23
105.6288520610533
 33
0.0
  0
SOLID
  5
A1E
330
A0E
100
AcDbEntity
  8
寸法
 62
     0
100
AcDbTrace
 10
154.7744779052272
 20
105.9621853943866
 30
0.0
 11
154.7744779052272
 21
105.2955187277199
 31
0.0
 12
152.7744779052272
 22
105.6288520610533
 32
0.0
 13
152.7744779052272
 23
105.6288520610533
 33
0.0
  0
MTEXT
  5
A1F
330
A0E
100
AcDbEntity
  8
寸法
 62
     0
370
    13
100
AcDbMText
 10
166.7744779052272
 20
107.6288520610533
 30
0.0
 40
2.5
 41
0.0
 71
     5
 72
     1
  1
28
 73
     1
 44
1.0
  0
POINT
  5
A20
330
A0E
100
AcDbEntity
  8
Defpoints
 62
     0
100
AcDbPoint
 10
180.7744779052272
 20
110.6288520610533
 30
0.0
  0
POINT
  5
A21
330
A0E
100
AcDbEntity
  8
Defpoints
 62
     0
100
AcDbPoint
 10
152.7744779052272
 20
110.6288520610533
 30
0.0
  0
POINT
  5
A22
330
A0E
100
AcDbEntity
  8
Defpoints
 62
     0
100
AcDbPoint
 10
152.7744779052272
 20
105.6288520610533
 30
0.0
  0
ENDBLK
  5
A19
330
A0E
100
AcDbEntity
  8
0
100
AcDbBlockEnd
  0
BLOCK
  5
A2E
330
A24
100
AcDbEntity
  8
0
100
AcDbBlockBegin
  2
*D8
 70
     1
 10
0.0
 20
0.0
 30
0.0
  3
*D8
  1

  0
LINE
  5
A39
330
A24
100
AcDbEntity
  8
寸法
 62
     0
370
    -2
100
AcDbLine
 10
-4.225522094772713
 20
135.6288520610533
 30
0.0
 11
-7.725522094772708
 21
135.6288520610533
 31
0.0
  0
LINE
  5
A3A
330
A24
100
AcDbEntity
  8
寸法
 62
     0
370
    -2
100
AcDbLine
 10
-4.225522094772713
 20
110.6288520610533
 30
0.0
 11
-7.725522094772713
 21
110.6288520610533
 31
0.0
  0
LINE
  5
A3B
330
A24
100
AcDbEntity
  8
寸法
 62
     0
370
    -2
100
AcDbLine
 10
-7.225522094772709
 20
133.6288520610533
 30
0.0
 11
-7.225522094772713
 21
112.6288520610532
 31
0.0
  0
SOLID
  5
A3C
330
A24
100
AcDbEntity
  8
寸法
 62
     0
100
AcDbTrace
 10
-7.558855428106042
 20
133.6288520610533
 30
0.0
 11
-6.892188761439376
 21
133.6288520610533
 31
0.0
 12
-7.225522094772708
 22
135.6288520610533
 32
0.0
 13
-7.225522094772708
 23
135.6288520610533
 33
0.0
  0
SOLID
  5
A3D
330
A24
100
AcDbEntity
  8
寸法
 62
     0
100
AcDbTrace
 10
-7.558855428106046
 20
112.6288520610532
 30
0.0
 11
-6.89218876143938
 21
112.6288520610532
 31
0.0
 12
-7.225522094772713
 22
110.6288520610533
 32
0.0
 13
-7.225522094772713
 23
110.6288520610533
 33
0.0
  0
MTEXT
  5
A3E
330
A24
100
AcDbEntity
  8
寸法
 62
     0
370
    13
100
AcDbMText
 10
-9.225522094772731
 20
123.1288520610533
 30
0.0
 40
2.5
 41
0.0
 71
     5
 72
     1
  1
25
 11
0.0000000000000001
 21
1.0
 31
0.0
 73
     1
 44
1.0
  0
POINT
  5
A3F
330
A24
100
AcDbEntity
  8
Defpoints
 62
     0
100
AcDbPoint
 10
-2.225522094772713
 20
135.6288520610533
 30
0.0
  0
POINT
  5
A40
330
A24
100
AcDbEntity
  8
Defpoints
 62
     0
100
AcDbPoint
 10
-2.225522094772713
 20
110.6288520610533
 30
0.0
  0
POINT
  5
A41
330
A24
100
AcDbEntity
  8
Defpoints
 62
     0
100
AcDbPoint
 10
-7.225522094772713
 20
110.6288520610533
 30
0.0
  0
ENDBLK
  5
A2F
330
A24
100
AcDbEntity
  8
0
100
AcDbBlockEnd
  0
BLOCK
  5
A4D
330
A43
100
AcDbEntity
  8
0
100
AcDbBlockBegin
  2
*D9
 70
     1
 10
0.0
 20
0.0
 30
0.0
  3
*D9
  1

  0
LINE
  5
A58
330
A43
100
AcDbEntity
  8
寸法
 62
     0
370
    -2
100
AcDbLine
 10
102.7744779052272
 20
108.6288520610533
 30
0.0
 11
102.7744779052272
 21
105.1288520610532
 31
0.0
  0
LINE
  5
A59
330
A43
100
AcDbEntity
  8
寸法
 62
     0
370
    -2
100
AcDbLine
 10
75.77447790522729
 20
108.6288520610533
 30
0.0
 11
75.77447790522729
 21
105.1288520610532
 31
0.0
  0
LINE
  5
A5A
330
A43
100
AcDbEntity
  8
寸法
 62
     0
370
    -2
100
AcDbLine
 10
100.7744779052272
 20
105.6288520610533
 30
0.0
 11
77.77447790522728
 21
105.6288520610533
 31
0.0
  0
SOLID
  5
A5B
330
A43
100
AcDbEntity
  8
寸法
 62
     0
100
AcDbTrace
 10
100.7744779052272
 20
105.9621853943866
 30
0.0
 11
100.7744779052272
 21
105.2955187277199
 31
0.0
 12
102.7744779052272
 22
105.6288520610533
 32
0.0
 13
102.7744779052272
 23
105.6288520610533
 33
0.0
  0
SOLID
  5
A5C
330
A43
100
AcDbEntity
  8
寸法
 62
     0
100
AcDbTrace
 10
77.77447790522728
 20
105.9621853943866
 30
0.0
 11
77.77447790522728
 21
105.2955187277199
 31
0.0
 12
75.77447790522729
 22
105.6288520610533
 32
0.0
 13
75.77447790522729
 23
105.6288520610533
 33
0.0
  0
MTEXT
  5
A5D
330
A43
100
AcDbEntity
  8
寸法
 62
     0
370
    13
100
AcDbMText
 10
89.27447790522728
 20
107.6288520610533
 30
0.0
 40
2.5
 41
0.0
 71
     5
 72
     1
  1
27
 73
     1
 44
1.0
  0
POINT
  5
A5E
330
A43
100
AcDbEntity
  8
Defpoints
 62
     0
100
AcDbPoint
 10
102.7744779052272
 20
110.6288520610533
 30
0.0
  0
POINT
  5
A5F
330
A43
100
AcDbEntity
  8
Defpoints
 62
     0
100
AcDbPoint
 10
75.77447790522729
 20
110.6288520610533
 30
0.0
  0
POINT
  5
A60
330
A43
100
AcDbEntity
  8
Defpoints
 62
     0
100
AcDbPoint
 10
75.77447790522729
 20
105.6288520610533
 30
0.0
  0
ENDBLK
  5
A4E
330
A43
100
AcDbEntity
  8
0
100
AcDbBlockEnd
  0
BLOCK
  5
A6C
330
A62
100
AcDbEntity
  8
0
100
AcDbBlockBegin
  2
*D10
 70
     1
 10
0.0
 20
0.0
 30
0.0
  3
*D10
  1

  0
LINE
  5
A6E
330
A62
100
AcDbEntity
  8
寸法
 62
     0
370
    -2
100
AcDbLine
 10
150.7744779052272
 20
135.6288520610533
 30
0.0
 11
147.2744779052272
 21
135.6288520610533
 31
0.0
  0
LINE
  5
A6F
330
A62
100
AcDbEntity
  8
寸法
 62
     0
370
    -2
100
AcDbLine
 10
150.7744779052272
 20
110.6288520610533
 30
0.0
 11
147.2744779052272
 21
110.6288520610533
 31
0.0
  0
LINE
  5
A70
330
A62
100
AcDbEntity
  8
寸法
 62
     0
370
    -2
100
AcDbLine
 10
147.7744779052272
 20
133.6288520610533
 30
0.0
 11
147.7744779052272
 21
112.6288520610532
 31
0.0
  0
SOLID
  5
A71
330
A62
100
AcDbEntity
  8
寸法
 62
     0
100
AcDbTrace
 10
147.4411445718939
 20
133.6288520610533
 30
0.0
 11
148.1078112385606
 21
133.6288520610533
 31
0.0
 12
147.7744779052272
 22
135.6288520610533
 32
0.0
 13
147.7744779052272
 23
135.6288520610533
 33
0.0
  0
SOLID
  5
A72
330
A62
100
AcDbEntity
  8
寸法
 62
     0
100
AcDbTrace
 10
147.4411445718939
 20
112.6288520610532
 30
0.0
 11
148.1078112385606
 21
112.6288520610532
 31
0.0
 12
147.7744779052272
 22
110.6288520610533
 32
0.0
 13
147.7744779052272
 23
110.6288520610533
 33
0.0
  0
MTEXT
  5
A73
330
A62
100
AcDbEntity
  8
寸法
 62
     0
370
    13
100
AcDbMText
 10
145.7744779052272
 20
123.1288520610533
 30
0.0
 40
2.5
 41
0.0
 71
     5
 72
     1
  1
25
 11
0.0000000000000001
 21
1.0
 31
0.0
 73
     1
 44
1.0
  0
POINT
  5
A74
330
A62
100
AcDbEntity
  8
Defpoints
 62
     0
100
AcDbPoint
 10
152.7744779052272
 20
135.6288520610533
 30
0.0
  0
POINT
  5
A75
330
A62
100
AcDbEntity
  8
Defpoints
 62
     0
100
AcDbPoint
 10
152.7744779052272
 20
110.6288520610533
 30
0.0
  0
POINT
  5
A76
330
A62
100
AcDbEntity
  8
Defpoints
 62
     0
100
AcDbPoint
 10
147.7744779052272
 20
110.6288520610533
 30
0.0
  0
ENDBLK
  5
A6D
330
A62
100
AcDbEntity
  8
0
100
AcDbBlockEnd
  0
ENDSEC
  0
SECTION
  2
ENTITIES
  0
MTEXT
  5
388
330
1F
100
AcDbEntity
  8
文字
370
    13
100
AcDbMText
 10
6.82200397177462
 20
8.327402715707421
 30
0.0
 40
7.5
 41
253.5826
 71
     1
 72
     5
  1
EOS　ストッパー　1170
 73
     1
 44
1.0
  0
LWPOLYLINE
  5
931
330
1F
100
AcDbEntity
  8
0
100
AcDbPolyline
 90
        8
 70
     0
 43
0.0
 10
99.77447790522729
 20
110.6288520610533
 10
102.7744779052272
 20
110.6288520610533
 10
102.7744779052272
 20
131.6288520610533
 42
0.4142135623730951
 10
98.7744779052273
 20
135.6288520610533
 10
79.77447790522728
 20
135.6288520610533
 42
0.4142135623730951
 10
75.77447790522729
 20
131.6288520610533
 10
75.77447790522729
 20
110.6288520610533
 10
78.77447790522729
 20
110.6288520610533
  0
LWPOLYLINE
  5
94C
330
1F
100
AcDbEntity
  8
0
100
AcDbPolyline
 90
        6
 70
     0
 43
0.0
 10
99.77447790522729
 20
110.6288520610533
 10
99.77447790522729
 20
131.6288520610533
 42
0.4142135623730951
 10
98.7744779052273
 20
132.6288520610533
 10
79.77447790522728
 20
132.6288520610533
 42
0.4142135623730951
 10
78.77447790522729
 20
131.6288520610533
 10
78.77447790522729
 20
110.6288520610533
  0
LWPOLYLINE
  5
94E
330
1F
100
AcDbEntity
  8
0
 62
     3
100
AcDbPolyline
 90
        6
 70
     0
 43
0.0
 10
86.27447790522728
 20
132.6288520610533
 10
86.27447790522728
 20
123.2288520610533
 10
86.8744779052273
 20
122.6288520610532
 10
91.67447790522727
 20
122.6288520610532
 10
92.27447790522729
 20
123.2288520610533
 10
92.27447790522729
 20
132.6288520610533
  0
LWPOLYLINE
  5
94F
330
1F
100
AcDbEntity
  8
0
 62
     3
100
AcDbPolyline
 90
        6
 70
     0
 43
0.0
 10
92.27447790522729
 20
135.6288520610533
 10
92.27447790522729
 20
142.0288520610533
 10
91.67447790522727
 20
142.6288520610533
 10
86.8744779052273
 20
142.6288520610532
 10
86.27447790522728
 20
142.0288520610533
 10
86.27447790522728
 20
135.6288520610533
  0
LWPOLYLINE
  5
950
330
1F
100
AcDbEntity
  8
0
100
AcDbPolyline
 90
        4
 70
     1
 43
0.0
 10
102.7744779052272
 20
117.6288520610532
 10
106.7744779052272
 20
117.6288520610532
 10
106.7744779052272
 20
129.6288520610533
 10
102.7744779052272
 20
129.6288520610533
  0
LWPOLYLINE
  5
951
330
1F
100
AcDbEntity
  8
0
100
AcDbPolyline
 90
        4
 70
     1
 43
0.0
 10
94.77447790522729
 20
121.1288520610533
 10
99.77447790522729
 20
120.1288520610533
 10
99.77447790522729
 20
127.1288520610532
 10
94.77447790522729
 20
126.1288520610532
  0
LWPOLYLINE
  5
952
330
1F
100
AcDbEntity
  8
0
100
AcDbPolyline
 90
        4
 70
     1
 43
0.0
 10
75.77447790522729
 20
166.5219554321487
 10
102.7744779052272
 20
166.5219554321487
 10
102.7744779052272
 20
194.5219554321487
 10
75.77447790522729
 20
194.5219554321487
  0
CIRCLE
  5
954
330
1F
100
AcDbEntity
  8
0
100
AcDbCircle
 10
89.27447790522728
 20
180.5219554321487
 30
0.0
 40
3.0
  0
LWPOLYLINE
  5
955
330
1F
100
AcDbEntity
  8
0
100
AcDbPolyline
 90
        4
 70
     1
 43
0.0
 10
102.7744779052272
 20
174.5219554321487
 10
106.7744779052272
 20
174.5219554321487
 10
106.7744779052272
 20
186.5219554321487
 10
102.7744779052272
 20
186.5219554321487
  0
DIMENSION
  5
956
330
1F
100
AcDbEntity
  8
寸法
370
    13
100
AcDbDimension
  2
*D1
 10
70.77447790522729
 20
110.6288520610533
 30
0.0
 11
68.77447790522727
 21
123.1288520610533
 31
0.0
 70
    32
 71
     5
 42
25.00000000000001
  3
ISO-25 1／10
100
AcDbAlignedDimension
 13
79.77447790522728
 23
135.6288520610533
 33
0.0
 14
75.77447790522729
 24
110.6288520610533
 34
0.0
 50
90.0
100
AcDbRotatedDimension
  0
DIMENSION
  5
975
330
1F
100
AcDbEntity
  8
寸法
370
    13
100
AcDbDimension
  2
*D3
 10
75.77447790522729
 20
199.5219554321487
 30
0.0
 11
89.27447790522728
 21
201.5219554321487
 31
0.0
 70
    32
 71
     5
 42
27.0
  3
ISO-25 1／10
100
AcDbAlignedDimension
 13
102.7744779052272
 23
194.5219554321487
 33
0.0
 14
75.77447790522729
 24
194.5219554321487
 34
0.0
 50
180.0
100
AcDbRotatedDimension
  0
DIMENSION
  5
976
330
1F
100
AcDbEntity
  8
寸法
370
    13
100
AcDbDimension
  2
*D2
 10
70.77447790522729
 20
166.5219554321487
 30
0.0
 11
68.77447790522726
 21
180.5219554321487
 31
0.0
 70
    32
 71
     5
 42
28.0
  3
ISO-25 1／10
100
AcDbAlignedDimension
 13
75.77447790522729
 23
194.5219554321487
 33
0.0
 14
75.77447790522729
 24
166.5219554321487
 34
0.0
 50
90.0
100
AcDbRotatedDimension
  0
DIMENSION
  5
9AA
330
1F
100
AcDbEntity
  8
寸法
370
    13
100
AcDbDimension
  2
*D4
 10
75.77447790522729
 20
46.73574868995792
 30
0.0
 11
89.27447790522728
 21
48.73574868995792
 31
0.0
 70
    32
 71
     5
 42
27.0
  3
ISO-25 1／10
100
AcDbAlignedDimension
 13
102.7744779052272
 23
51.73574868995792
 33
0.0
 14
75.77447790522729
 24
51.73574868995792
 34
0.0
 50
180.0
100
AcDbRotatedDimension
  0
LWPOLYLINE
  5
9AB
330
1F
100
AcDbEntity
  8
0
100
AcDbPolyline
 90
        4
 70
     1
 43
0.0
 10
75.77447790522729
 20
79.73574868995791
 10
102.7744779052272
 20
79.73574868995791
 10
102.7744779052272
 20
51.73574868995792
 10
75.77447790522729
 20
51.73574868995792
  0
DIMENSION
  5
9AC
330
1F
100
AcDbEntity
  8
寸法
370
    13
100
AcDbDimension
  2
*D5
 10
70.77447790522729
 20
79.73574868995791
 30
0.0
 11
68.77447790522727
 21
65.73574868995793
 31
0.0
 70
    32
 71
     5
 42
28.0
  3
ISO-25 1／10
100
AcDbAlignedDimension
 13
75.77447790522729
 23
51.73574868995792
 33
0.0
 14
75.77447790522729
 24
79.73574868995791
 34
0.0
 50
270.0
100
AcDbRotatedDimension
  0
CIRCLE
  5
9AD
330
1F
100
AcDbEntity
  8
0
100
AcDbCircle
 10
89.27447790522728
 20
65.73574868995791
 30
0.0
 40
3.0
  0
LWPOLYLINE
  5
9AE
330
1F
100
AcDbEntity
  8
0
100
AcDbPolyline
 90
        4
 70
     1
 43
0.0
 10
102.7744779052272
 20
71.73574868995792
 10
106.7744779052272
 20
71.73574868995792
 10
106.7744779052272
 20
59.73574868995791
 10
102.7744779052272
 20
59.73574868995791
  0
LINE
  5
9D9
330
1F
100
AcDbEntity
  8
0
100
AcDbLine
 10
78.77447790522729
 20
79.73574868995791
 30
0.0
 11
78.77447790522729
 21
51.73574868995792
 31
0.0
  0
LINE
  5
9DA
330
1F
100
AcDbEntity
  8
0
100
AcDbLine
 10
99.77447790522729
 20
79.73574868995791
 30
0.0
 11
99.77447790522729
 21
51.73574868995792
 31
0.0
  0
LWPOLYLINE
  5
9DB
330
1F
100
AcDbEntity
  8
0
100
AcDbPolyline
 90
        4
 70
     1
 43
0.0
 10
94.77447790522729
 20
63.23574868995791
 10
99.77447790522729
 20
62.23574868995791
 10
99.77447790522729
 20
69.23574868995792
 10
94.77447790522729
 20
68.23574868995791
  0
LWPOLYLINE
  5
9DC
330
1F
100
AcDbEntity
  8
0
100
AcDbPolyline
 90
        4
 70
     1
 43
0.0
 10
152.7744779052272
 20
110.6288520610533
 10
180.7744779052272
 20
110.6288520610533
 10
180.7744779052272
 20
135.6288520610533
 10
152.7744779052272
 20
135.6288520610533
  0
LWPOLYLINE
  5
9DD
330
1F
100
AcDbEntity
  8
0
 62
     3
100
AcDbPolyline
 90
        6
 70
     0
 43
0.0
 10
169.7744779052272
 20
135.6288520610533
 10
169.7744779052272
 20
142.0288520610533
 10
169.1744779052272
 20
142.6288520610533
 10
164.3744779052273
 20
142.6288520610532
 10
163.7744779052273
 20
142.0288520610533
 10
163.7744779052273
 20
135.6288520610533
  0
CIRCLE
  5
9DE
330
1F
100
AcDbEntity
  8
0
100
AcDbCircle
 10
166.7744779052272
 20
123.6288520610532
 30
0.0
 40
6.0
  0
CIRCLE
  5
9E0
330
1F
100
AcDbEntity
  8
0
100
AcDbCircle
 10
166.7744779052272
 20
123.6288520610532
 30
0.0
 40
2.0
  0
LWPOLYLINE
  5
9E3
330
1F
100
AcDbEntity
  8
0
100
AcDbPolyline
 90
        4
 70
     1
 43
0.0
 10
25.77447790522728
 20
110.6288520610533
 10
-2.225522094772713
 20
110.6288520610533
 10
-2.225522094772713
 20
135.6288520610533
 10
25.77447790522728
 20
135.6288520610533
  0
LWPOLYLINE
  5
9E4
330
1F
100
AcDbEntity
  8
0
 62
     3
100
AcDbPolyline
 90
        6
 70
     0
 43
0.0
 10
8.774477905227286
 20
135.6288520610533
 10
8.774477905227286
 20
142.0288520610533
 10
9.374477905227308
 20
142.6288520610533
 10
14.17447790522726
 20
142.6288520610532
 10
14.77447790522728
 20
142.0288520610533
 10
14.77447790522728
 20
135.6288520610533
  0
DIMENSION
  5
9E5
330
1F
100
AcDbEntity
  8
寸法
370
    13
100
AcDbDimension
  2
*D6
 10
-2.225522094772714
 20
105.6288520610533
 30
0.0
 11
11.77447790522728
 21
107.6288520610533
 31
0.0
 70
    32
 71
     5
 42
28.0
  3
ISO-25 1／10
100
AcDbAlignedDimension
 13
25.77447790522728
 23
110.6288520610533
 33
0.0
 14
-2.225522094772713
 24
110.6288520610533
 34
0.0
 50
180.0
100
AcDbRotatedDimension
  0
DIMENSION
  5
A0D
330
1F
100
AcDbEntity
  8
寸法
370
    13
100
AcDbDimension
  2
*D7
 10
152.7744779052272
 20
105.6288520610533
 30
0.0
 11
166.7744779052272
 21
107.6288520610533
 31
0.0
 70
    32
 71
     5
 42
28.0
  3
ISO-25 1／10
100
AcDbAlignedDimension
 13
180.7744779052272
 23
110.6288520610533
 33
0.0
 14
152.7744779052272
 24
110.6288520610533
 34
0.0
 50
180.0
100
AcDbRotatedDimension
  0
DIMENSION
  5
A23
330
1F
100
AcDbEntity
  8
寸法
370
    13
100
AcDbDimension
  2
*D8
 10
-7.225522094772713
 20
110.6288520610533
 30
0.0
 11
-9.225522094772731
 21
123.1288520610533
 31
0.0
 70
    32
 71
     5
 42
25.0
  3
ISO-25 1／10
100
AcDbAlignedDimension
 13
-2.225522094772713
 23
135.6288520610533
 33
0.0
 14
-2.225522094772713
 24
110.6288520610533
 34
0.0
 50
90.0
100
AcDbRotatedDimension
  0
DIMENSION
  5
A42
330
1F
100
AcDbEntity
  8
寸法
370
    13
100
AcDbDimension
  2
*D9
 10
75.77447790522729
 20
105.6288520610533
 30
0.0
 11
89.27447790522728
 21
107.6288520610533
 31
0.0
 70
    32
 71
     5
 42
27.0
  3
ISO-25 1／10
100
AcDbAlignedDimension
 13
102.7744779052272
 23
110.6288520610533
 33
0.0
 14
75.77447790522729
 24
110.6288520610533
 34
0.0
 50
180.0
100
AcDbRotatedDimension
  0
DIMENSION
  5
A61
330
1F
100
AcDbEntity
  8
寸法
370
    13
100
AcDbDimension
  2
*D10
 10
147.7744779052272
 20
110.6288520610533
 30
0.0
 11
145.7744779052272
 21
123.1288520610533
 31
0.0
 70
    32
 71
     5
 42
25.0
  3
ISO-25 1／10
100
AcDbAlignedDimension
 13
152.7744779052272
 23
135.6288520610533
 33
0.0
 14
152.7744779052272
 24
110.6288520610533
 34
0.0
 50
90.0
100
AcDbRotatedDimension
  0
ENDSEC
  0
SECTION
  2
OBJECTS
  0
DICTIONARY
  5
C
330
0
100
AcDbDictionary
281
     1
  3
ACAD_GROUP
350
D
  3
ACAD_LAYOUT
350
1A
  3
ACAD_MLINESTYLE
350
17
  3
ACAD_PLOTSETTINGS
350
19
  3
ACAD_PLOTSTYLENAME
350
E
  0
DICTIONARY
  5
44
330
2
100
AcDbDictionary
280
     1
281
     1
  3
ACAD_LAYERFILTERS
360
45
  0
DICTIONARY
  5
D
102
{ACAD_REACTORS
330
C
102
}
330
C
100
AcDbDictionary
281
     1
  3
*A1
350
5C6
  3
*A2
350
604
  3
*A3
350
606
  3
*A4
350
657
  3
*A5
350
6E2
  3
*A6
350
710
  3
*A7
350
859
  0
DICTIONARY
  5
1A
102
{ACAD_REACTORS
330
C
102
}
330
C
100
AcDbDictionary
281
     1
  3
Layout1
350
1E
  3
Layout2
350
26
  3
Model
350
22
  0
DICTIONARY
  5
17
102
{ACAD_REACTORS
330
C
102
}
330
C
100
AcDbDictionary
281
     1
  3
Standard
350
18
  0
DICTIONARY
  5
19
102
{ACAD_REACTORS
330
C
102
}
330
C
100
AcDbDictionary
281
     1
  0
ACDBDICTIONARYWDFLT
  5
E
102
{ACAD_REACTORS
330
C
102
}
330
C
100
AcDbDictionary
281
     1
  3
Normal
350
F
100
AcDbDictionaryWithDefault
340
F
  0
DICTIONARY
  5
45
102
{ACAD_REACTORS
330
44
102
}
330
44
100
AcDbDictionary
280
     1
281
     1
  3
-100
360
46
  3
-50
360
47
  3
-ben
360
48
  3
-H
360
49
  3
-T
360
4A
  3
$
360
4B
  3
$0$
360
4C
  3
0
360
4D
  3
0-
360
4E
  3
00
360
4F
  3
01
360
50
  3
01KUTAI
360
51
  3
01全体計画平面図
360
52
  3
02現況平面図
360
53
  3
03撤去平面図
360
54
  3
04造成平面図
360
55
  3
05
360
56
  3
05施設平面図
360
57
  3
06
360
58
  3
06siki
360
59
  3
06siki2
360
5A
  3
06排水平面図
360
5B
  3
07
360
5C
  3
07給水平面図
360
5D
  3
0割付平面図
360
5E
  3
0潅水平面
360
5F
  3
0計画平面
360
60
  3
0高木植栽
360
61
  3
0施設平面
360
62
  3
0床内
360
63
  3
0床壁
360
64
  3
0照明配置図
360
65
  3
0詳細図
360
66
  3
0植栽基盤
360
67
  3
0全体工区区分図
360
68
  3
0総合図off
360
69
  3
0総合図枠
360
6A
  3
0低木
360
6B
  3
0排水平面
360
6C
  3
0平詳枠
360
6D
  3
0擁壁平面図
360
6E
  3
1
360
6F
  3
10
360
70
  3
100
360
71
  3
10植栽平面図
360
72
  3
11
360
73
  3
1111
360
74
  3
11寸法図
360
75
  3
12
360
76
  3
19
360
77
  3
１Ｆ床伏OFF
360
78
  3
1階
360
79
  3
1床
360
7A
  3
1芯
360
7B
  3
1芯線
360
7C
  3
20
360
7D
  3
21
360
7E
  3
250
360
7F
  3
2fmiage
360
80
  3
2躯体
360
81
  3
2断面
360
82
  3
2壁
360
83
  3
300
360
84
  3
32
360
85
  3
333
360
86
  3
37
360
87
  3
3D
360
88
  3
3開口
360
89
  3
3見掛り
360
8A
  3
3天井内
360
8B
  3
41
360
8C
  3
4仕上げ
360
8D
  3
4天井
360
8E
  3
5
360
8F
  3
50
360
90
  3
50off
360
91
  3
51-52
360
92
  3
555
360
93
  3
5寸法
360
94
  3
5文字
360
95
  3
6
360
96
  3
66-躯体図
360
97
  3
66躯体図
360
98
  3
6記号
360
99
  3
6文字
360
9A
  3
6保留
360
9B
  3
767
360
9C
  3
767SE13-0...$
360
9D
  3
767SE13-07-99$0$
360
9E
  3
7記号
360
9F
  3
8
360
A0
  3
8寸法
360
A1
  3
8設備
360
A2
  3
9文字
360
A3
  3
9目地
360
A4
  3
A
360
A5
  3
A-
360
A6
  3
A(枠･表)を表示
360
A7
  3
A01
360
A8
  3
A1.DEMO-KEY NOTE
360
A9
  3
A2. CONS-KEY NOTE
360
AA
  3
A21
360
AB
  3
A3
360
AC
  3
A3. RCP-LAYER
360
AD
  3
A3D. RCP_DEMO-KEY NOTE
360
AE
  3
A4. P&T- KEY NOTE
360
AF
  3
A4D. EL_DEMO-KEY NOTE
360
B0
  3
A5. FINISH-KEY NOTE
360
B1
  3
A6. FURN-KEY NOTE
360
B2
  3
aa
360
B3
  3
aaa
360
B4
  3
AB棟
360
B5
  3
ＡＢ棟
360
B6
  3
ACTIVE
360
B7
  3
ACTIVE2
360
B8
  3
ALC
360
B9
  3
ALL
360
BA
  3
all選択
360
BB
  3
AMENAGEMENT
360
BC
  3
AQ
360
BD
  3
ARBOL
360
BE
  3
AREA
360
BF
  3
AREA-SG
360
C0
  3
AS1
360
C1
  3
aハッチング
360
C2
  3
A空調
360
C3
  3
B
360
C4
  3
B(基準)を表示
360
C5
  3
B2
360
C6
  3
B3
360
C7
  3
BAL
360
C8
  3
baru
360
C9
  3
baru2
360
CA
  3
BASE
360
CB
  3
bb
360
CC
  3
bbbb
360
CD
  3
beam
360
CE
  3
blocchi
360
CF
  3
blue
360
D0
  3
BSM
360
D1
  3
b階段
360
D2
  3
B電気
360
D3
  3
c
360
D4
  3
c-block
360
D5
  3
c-block-2
360
D6
  3
C(寸･文･記)を表示
360
D7
  3
cajetin
360
D8
  3
cc
360
D9
  3
CD06
360
DA
  3
ＣＤ棟
360
DB
  3
ceiling
360
DC
  3
CEILINGS XREF
360
DD
  3
CEL
360
DE
  3
che
360
DF
  3
chika
360
E0
  3
CLG
360
E1
  3
COL
360
E2
  3
cold beam
360
E3
  3
colu
360
E4
  3
com
360
E5
  3
con
360
E6
  3
CRG
360
E7
  3
cyan
360
E8
  3
C衛生
360
E9
  3
C街区関連
360
EA
  3
c雑金物
360
EB
  3
C打計画図
360
EC
  3
D
360
ED
  3
D(表現補助)を表示
360
EE
  3
Ｄ・墓地　施設平面
360
EF
  3
D16
360
F0
  3
DASHED
360
F1
  3
DASHED2
360
F2
  3
DEMO
360
F3
  3
DEMOLITION
360
F4
  3
detail
360
F5
  3
details
360
F6
  3
DHED
360
F7
  3
Dim
360
F8
  3
disegno
360
F9
  3
DOORS
360
FA
  3
DR
360
FB
  3
DT
360
FC
  3
d外構
360
FD
  3
Ｄ街区低木
360
FE
  3
D割付平面
360
FF
  3
Ｄ給水設備
360
100
  3
Ｄ計画高平面
360
101
  3
Ｄ計画平面
360
102
  3
Ｄ工事区分
360
103
  3
Ｄ高木植栽
360
104
  3
Ｄ施設平面
360
105
  3
Ｄ照明設備
360
106
  3
Ｄ低木
360
107
  3
Ｄ電気設備
360
108
  3
Ｄ土壌改良
360
109
  3
Ｄ排水平面
360
10A
  3
D舗装平面
360
10B
  3
Ｄ墓地施設平面
360
10C
  3
D墓地排水
360
10D
  3
E
360
10E
  3
E(点線系)を表示
360
10F
  3
EEEE
360
110
  3
EISEI
360
111
  3
ele
360
112
  3
elec
360
113
  3
ERAS1F
360
114
  3
existing
360
115
  3
Exit
360
116
  3
F
360
117
  3
F(断面)を表示
360
118
  3
F1
360
119
  3
face4
360
11A
  3
FC_CLADDING
360
11B
  3
FENCE
360
11C
  3
FF
360
11D
  3
FH
360
11E
  3
FILTER1
360
11F
  3
fini
360
120
  3
finish
360
121
  3
FIRE
360
122
  3
fixture
360
123
  3
fl
360
124
  3
Floor
360
125
  3
FLOOR PLAN
360
126
  3
fr
360
127
  3
freeze
360
128
  3
FRZ
360
129
  3
Fugou
360
12A
  3
FUGOU-TATEGU
360
12B
  3
FUKI
360
12C
  3
FURN
360
12D
  3
FURNITURE
360
12E
  3
FUSE_00
360
12F
  3
G
360
130
  3
G(開口)を表示
360
131
  3
GAIKOU
360
132
  3
gel
360
133
  3
gen
360
134
  3
gondora
360
135
  3
green
360
136
  3
GRID
360
137
  3
gris
360
138
  3
H
360
139
  3
H-
360
13A
  3
H-SIN
360
13B
  3
H(見掛)を表示
360
13C
  3
HA
360
13D
  3
haikin
360
13E
  3
HAISEN
360
13F
  3
HARI
360
140
  3
hasira
360
141
  3
HATCH
360
142
  3
HCP
360
143
  3
HEISHO
360
144
  3
HEISHO2
360
145
  3
HIDDEN
360
146
  3
HOJO
360
147
  3
hollywood
360
148
  3
HOTEL
360
149
  3
huse
360
14A
  3
HYOKI
360
14B
  3
HYOUKI
360
14C
  3
i
360
14D
  3
I(二次部材系))を表示
360
14E
  3
I2
360
14F
  3
i2cl
360
150
  3
i5
360
151
  3
i9
360
152
  3
in
360
153
  3
INSERT図
360
154
  3
ISSUE
360
155
  3
J
360
156
  3
K
360
157
  3
KABE
360
158
  3
KABESHIN
360
159
  3
KAGU
360
15A
  3
key
360
15B
  3
KI
360
15C
  3
KIGO
360
15D
  3
KIJUN
360
15E
  3
kiso
360
15F
  3
KSIN
360
160
  3
kui
360
161
  3
KUTAI
360
162
  3
L
360
163
  3
LEGEND
360
164
  3
LGS
360
165
  3
light
360
166
  3
LIST
360
167
  3
lixo
360
168
  3
LOCK
360
169
  3
LTA
360
16A
  3
Ｌ建具
360
16B
  3
M
360
16C
  3
MA
360
16D
  3
MACONNERIE
360
16E
  3
magenta
360
16F
  3
magenta-bleu
360
170
  3
maji
360
171
  3
MAJIKIRI
360
172
  3
marco
360
173
  3
MB
360
174
  3
meji
360
175
  3
merceologico
360
176
  3
MILL
360
177
  3
MILLWORK
360
178
  3
miwa
360
179
  3
MOJI
360
17A
  3
MOJI100
360
17B
  3
N
360
17C
  3
N-
360
17D
  3
NAM
360
17E
  3
NEW
360
17F
  3
NHK
360
180
  3
niimi
360
181
  3
no xref
360
182
  3
note
360
183
  3
NUM
360
184
  3
NUMB
360
185
  3
O
360
186
  3
OF
360
187
  3
OFF
360
188
  3
on
360
189
  3
option 1
360
18A
  3
option 2
360
18B
  3
OUTLINE
360
18C
  3
P
360
18D
  3
pa
360
18E
  3
PALFOND
360
18F
  3
PAT
360
190
  3
PC
360
191
  3
PISO
360
192
  3
PLAN
360
193
  3
PLMB
360
194
  3
plot
360
195
  3
PLUMB
360
196
  3
PNL
360
197
  3
power
360
198
  3
PRT
360
199
  3
q
360
19A
  3
R
360
19B
  3
rack
360
19C
  3
RC
360
19D
  3
RCP
360
19E
  3
rm
360
19F
  3
RMTAGS
360
1A0
  3
RNUM
360
1A1
  3
ROOM
360
1A2
  3
roomno
360
1A3
  3
rouge
360
1A4
  3
rtkl
360
1A5
  3
S
360
1A6
  3
saciencewold
360
1A7
  3
SETUBI
360
1A8
  3
SHITU
360
1A9
  3
SHITUMEI
360
1AA
  3
SIAG
360
1AB
  3
SIAG-N
360
1AC
  3
SIAG3
360
1AD
  3
sin
360
1AE
  3
Sinm
360
1AF
  3
SITA
360
1B0
  3
siyah
360
1B1
  3
SS
360
1B2
  3
ST
360
1B3
  3
STA
360
1B4
  3
stairs
360
1B5
  3
SUGA5
360
1B6
  3
SUNP
360
1B7
  3
SUNP100
360
1B8
  3
T
360
1B9
  3
TAKASA
360
1BA
  3
TATE161
360
1BB
  3
TATEGU
360
1BC
  3
ten
360
1BD
  3
TENJYOU
360
1BE
  3
TENJYOUNAI
360
1BF
  3
test
360
1C0
  3
text
360
1C1
  3
thaw
360
1C2
  3
TITL
360
1C3
  3
tnjyou
360
1C4
  3
tori
360
1C5
  3
TORISHIN
360
1C6
  3
tr
360
1C7
  3
TSIN
360
1C8
  3
TXT
360
1C9
  3
UNFREEZ
360
1CA
  3
UNROCK
360
1CB
  3
wada
360
1CC
  3
waku
360
1CD
  3
X
360
1CE
  3
X(敷地)を表示
360
1CF
  3
xref
360
1D0
  3
YAJI
360
1D1
  3
yellow
360
1D2
  3
YUKA
360
1D3
  3
yその他
360
1D4
  3
Z
360
1D5
  3
ZATU
360
1D6
  3
z図枠
360
1D7
  3
к
360
1D8
  3
перегородки
360
1D9
  3
イベント給水
360
1DA
  3
ガラス
360
1DB
  3
キ-プラン
360
1DC
  3
キープラン
360
1DD
  3
さーくる
360
1DE
  3
シェルター
360
1DF
  3
すべてに反映
360
1E0
  3
スロープ
360
1E1
  3
タイル割付平面図
360
1E2
  3
ﾃｷｽﾄのみ表示
360
1E3
  3
ハッチング
360
1E4
  3
フリーズ
360
1E5
  3
フリーズof
360
1E6
  3
ﾌﾘｰｽﾞ画層非表示
360
1E7
  3
ﾌﾘｰｽﾞ画面非表示
360
1E8
  3
ﾌﾘｰｽﾞ解除
360
1E9
  3
フリーズ解除
360
1EA
  3
ﾌﾟﾚｾﾞﾝ枠
360
1EB
  3
マーク
360
1EC
  3
ﾒｲﾝﾌﾟﾗｻﾞ
360
1ED
  3
レベル
360
1EE
  3
ロック
360
1EF
  3
一括非表示
360
1F0
  3
一般図
360
1F1
  3
印刷
360
1F2
  3
荏原機器
360
1F3
  3
荏原機器基礎
360
1F4
  3
衛生設備図
360
1F5
  3
黄色
360
1F6
  3
下階
360
1F7
  3
下地
360
1F8
  3
外構
360
1F9
  3
外部参照－建築
360
1FA
  3
外部参照除く
360
1FB
  3
割り付け平面図
360
1FC
  3
割付平面図
360
1FD
  3
潅水平面
360
1FE
  3
基
360
1FF
  3
基準
360
200
  3
基準階
360
201
  3
基礎OFF
360
202
  3
基礎伏
360
203
  3
基礎伏図
360
204
  3
基盤改良平面図
360
205
  3
既存杭
360
206
  3
機器
360
207
  3
機器基礎
360
208
  3
記号
360
209
  3
給水設備平面図
360
20A
  3
給水平面
360
20B
  3
区画
360
20C
  3
躯体
360
20D
  3
躯体図
360
20E
  3
空調jv
360
20F
  3
空調設備図
360
210
  3
郡川
360
211
  3
型枠計画図
360
212
  3
計画高平面図
360
213
  3
計画平面
360
214
  3
計画平面図
360
215
  3
劇場ﾌﾟﾗｻﾞ
360
216
  3
劇場棟
360
217
  3
建具
360
218
  3
建築接地図
360
219
  3
見上げ
360
21A
  3
現在非表示画層
360
21B
  3
光天井
360
21C
  3
公園
360
21D
  3
工事区分図
360
21E
  3
工事区分図AB
360
21F
  3
工事区分図CD
360
220
  3
高さ
360
221
  3
高木植栽平面
360
222
  3
高木平面図
360
223
  3
座席のみ
360
224
  3
作業
360
225
  3
参考
360
226
  3
山止根切計画図
360
227
  3
仕
360
228
  3
仕上
360
229
  3
仕上図
360
22A
  3
使用中
360
22B
  3
施設配置図
360
22C
  3
施設平面
360
22D
  3
施設平面図
360
22E
  3
紫
360
22F
  3
床伏図
360
230
  3
昇降機
360
231
  3
照明
360
232
  3
照明Ｃ１
360
233
  3
照明Ｃ２
360
234
  3
照明配置図
360
235
  3
詳細
360
236
  3
詳細図
360
237
  3
上階躯体図
360
238
  3
植栽
360
239
  3
植栽基盤平面
360
23A
  3
植栽現況
360
23B
  3
植栽高木AB
360
23C
  3
植栽高木CD
360
23D
  3
植栽低木AB
360
23E
  3
植栽低木ＣＤ
360
23F
  3
色番号8
360
240
  3
申請用
360
241
  3
芯
360
242
  3
芯関係
360
243
  3
水
360
244
  3
水色
360
245
  3
寸法
360
246
  3
製作
360
247
  3
製作-躯体
360
248
  3
製作-建築
360
249
  3
製作-昇降機
360
24A
  3
青
360
24B
  3
設備
360
24C
  3
設備プロット
360
24D
  3
全階平面図
360
24E
  3
総合仮設図
360
24F
  3
総合図
360
250
  3
足場計画図
360
251
  3
地下埋設
360
252
  3
中野
360
253
  3
低木植栽平面
360
254
  3
低木平面図
360
255
  3
鉄骨
360
256
  3
鉄骨建方計画図
360
257
  3
天井インサート図
360
258
  3
天井総合図
360
259
  3
天井伏図
360
25A
  3
天伏
360
25B
  3
電気設備図
360
25C
  3
土壌改良
360
25D
  3
土木計画平面図
360
25E
  3
道路
360
25F
  3
道路関係図
360
260
  3
排水
360
261
  3
排水設備平面図
360
262
  3
排水平面
360
263
  3
配管
360
264
  3
非表示
360
265
  3
非表示ﾚｲﾔｰ
360
266
  3
表示
360
267
  3
表示・非表示
360
268
  3
表示2
360
269
  3
分割枠
360
26A
  3
平面詳細図
360
26B
  3
平面図
360
26C
  3
平面総合図
360
26D
  3
変更分
360
26E
  3
舗装平面
360
26F
  3
舗装平面C1
360
270
  3
舗装平面C2
360
271
  3
舗装平面図
360
272
  3
法規チェック－区画
360
273
  3
法規チェック－範囲
360
274
  3
鳳文字入力
360
275
  3
防災
360
276
  3
名称
360
277
  3
面積
360
278
  3
擁壁平面図
360
279
  3
用途色塗
360
27A
  3
立面図
360
27B
  3
梁
360
27C
  3
緑
360
27D
  0
GROUP
  5
5C6
102
{ACAD_REACTORS
330
D
102
}
330
D
100
AcDbGroup
300

 70
     1
 71
     1
  0
GROUP
  5
604
102
{ACAD_REACTORS
330
D
102
}
330
D
100
AcDbGroup
300

 70
     1
 71
     1
  0
GROUP
  5
606
102
{ACAD_REACTORS
330
D
102
}
330
D
100
AcDbGroup
300

 70
     1
 71
     1
  0
GROUP
  5
657
102
{ACAD_REACTORS
330
D
102
}
330
D
100
AcDbGroup
300

 70
     1
 71
     1
  0
GROUP
  5
6E2
102
{ACAD_REACTORS
330
D
102
}
330
D
100
AcDbGroup
300

 70
     1
 71
     1
  0
GROUP
  5
710
102
{ACAD_REACTORS
330
D
102
}
330
D
100
AcDbGroup
300

 70
     1
 71
     1
  0
GROUP
  5
859
102
{ACAD_REACTORS
330
D
102
}
330
D
100
AcDbGroup
300

 70
     1
 71
     1
  0
LAYOUT
  5
1E
102
{ACAD_REACTORS
330
1A
102
}
330
1A
100
AcDbPlotSettings
  1

  2

  4

  6

 40
0.0
 41
0.0
 42
0.0
 43
0.0
 44
0.0
 45
0.0
 46
0.0
 47
0.0
 48
0.0
 49
0.0
140
0.0
141
0.0
142
1.0
143
1.0
 70
   688
 72
     0
 73
     0
 74
     5
  7

 75
    16
147
1.0
148
0.0
149
0.0
100
AcDbLayout
  1
Layout1
 70
     1
 71
     1
 10
0.0
 20
0.0
 11
420.0
 21
297.0
 12
0.0
 22
0.0
 32
0.0
 14
1.000000000000000E+20
 24
1.000000000000000E+20
 34
1.000000000000000E+20
 15
-1.000000000000000E+20
 25
-1.000000000000000E+20
 35
-1.000000000000000E+20
146
0.0
 13
0.0
 23
0.0
 33
0.0
 16
1.0
 26
0.0
 36
0.0
 17
0.0
 27
1.0
 37
0.0
 76
     0
330
1B
  0
LAYOUT
  5
26
102
{ACAD_REACTORS
330
1A
102
}
330
1A
100
AcDbPlotSettings
  1

  2

  4

  6

 40
0.0
 41
0.0
 42
0.0
 43
0.0
 44
0.0
 45
0.0
 46
0.0
 47
0.0
 48
0.0
 49
0.0
140
0.0
141
0.0
142
1.0
143
1.0
 70
   688
 72
     0
 73
     0
 74
     5
  7

 75
    16
147
1.0
148
0.0
149
0.0
100
AcDbLayout
  1
Layout2
 70
     1
 71
     2
 10
0.0
 20
0.0
 11
12.0
 21
9.0
 12
0.0
 22
0.0
 32
0.0
 14
0.0
 24
0.0
 34
0.0
 15
0.0
 25
0.0
 35
0.0
146
0.0
 13
0.0
 23
0.0
 33
0.0
 16
1.0
 26
0.0
 36
0.0
 17
0.0
 27
1.0
 37
0.0
 76
     0
330
23
  0
LAYOUT
  5
22
102
{ACAD_REACTORS
330
1A
102
}
330
1A
100
AcDbPlotSettings
  1

  2

  4

  6

 40
0.0
 41
0.0
 42
0.0
 43
0.0
 44
0.0
 45
0.0
 46
0.0
 47
0.0
 48
0.0
 49
0.0
140
0.0
141
0.0
142
1.0
143
1.0
 70
  1712
 72
     0
 73
     0
 74
     0
  7

 75
     0
147
1.0
148
0.0
149
0.0
100
AcDbLayout
  1
Model
 70
     1
 71
     0
 10
0.0
 20
0.0
 11
12.0
 21
9.0
 12
0.0
 22
0.0
 32
0.0
 14
0.0
 24
0.0
 34
0.0
 15
0.0
 25
0.0
 35
0.0
146
0.0
 13
0.0
 23
0.0
 33
0.0
 16
1.0
 26
0.0
 36
0.0
 17
0.0
 27
1.0
 37
0.0
 76
     0
330
1F
  0
MLINESTYLE
  5
18
102
{ACAD_REACTORS
330
17
102
}
330
17
100
AcDbMlineStyle
  2
STANDARD
 70
     0
  3

 62
   256
 51
90.0
 52
90.0
 71
     2
 49
0.5
 62
   256
  6
BYLAYER
 49
-0.5
 62
   256
  6
BYLAYER
  0
ACDBPLACEHOLDER
  5
F
102
{ACAD_REACTORS
330
E
102
}
330
E
  0
XRECORD
  5
46
102
{ACAD_REACTORS
330
45
102
}
330
45
100
AcDbXrecord
280
     1
  1
-100
  1
*-100
  1
*
  1
*
 70
     0
  1
*
  1
*
  0
XRECORD
  5
47
102
{ACAD_REACTORS
330
45
102
}
330
45
100
AcDbXrecord
280
     1
  1
-50
  1
*-50
  1
*
  1
*
 70
     0
  1
*
  1
*
  0
XRECORD
  5
48
102
{ACAD_REACTORS
330
45
102
}
330
45
100
AcDbXrecord
280
     1
  1
-ben
  1
ben*
  1
*
  1
*
 70
     0
  1
*
  1
*
  0
XRECORD
  5
49
102
{ACAD_REACTORS
330
45
102
}
330
45
100
AcDbXrecord
280
     1
  1
-H
  1
00*,01*,02*,05*,1*,2*,3*,4*,5*,6*,8*
  1
*
  1
*
 70
     0
  1
*
  1
*
  0
XRECORD
  5
4A
102
{ACAD_REACTORS
330
45
102
}
330
45
100
AcDbXrecord
280
     1
  1
-T
  1
00*,01*,03*,05*,1*,20*,21*,22*,23*,24*,25*,26*,27*,29*,2a*,3*,4*,7*,9*
  1
*
  1
*
 70
     0
  1
*
  1
*
  0
XRECORD
  5
4B
102
{ACAD_REACTORS
330
45
102
}
330
45
100
AcDbXrecord
280
     1
  1
$
  1
*$0$*
  1
*
  1
*
 70
     0
  1
*
  1
*
  0
XRECORD
  5
4C
102
{ACAD_REACTORS
330
45
102
}
330
45
100
AcDbXrecord
280
     1
  1
$0$
  1
$0$*
  1
*
  1
*
 70
     0
  1
*
  1
*
  0
XRECORD
  5
4D
102
{ACAD_REACTORS
330
45
102
}
330
45
100
AcDbXrecord
280
     1
  1
0
  1
0*
  1
*
  1
*
 70
     0
  1
*
  1
*
  0
XRECORD
  5
4E
102
{ACAD_REACTORS
330
45
102
}
330
45
100
AcDbXrecord
280
     1
  1
0-
  1
0-*
  1
*
  1
*
 70
     0
  1
*
  1
*
  0
XRECORD
  5
4F
102
{ACAD_REACTORS
330
45
102
}
330
45
100
AcDbXrecord
280
     1
  1
00
  1
*-100
  1
*
  1
*
 70
     0
  1
*
  1
*
  0
XRECORD
  5
50
102
{ACAD_REACTORS
330
45
102
}
330
45
100
AcDbXrecord
280
     1
  1
01
  1
0*a*
  1
*
  1
*
 70
     0
  1
*
  1
*
  0
XRECORD
  5
51
102
{ACAD_REACTORS
330
45
102
}
330
45
100
AcDbXrecord
280
     1
  1
01KUTAI
  1
01KUTAI
  1
*
  1
*
 70
     0
  1
*
  1
*
  0
XRECORD
  5
52
102
{ACAD_REACTORS
330
45
102
}
330
45
100
AcDbXrecord
280
     1
  1
01全体計画平面図
  1
00*,02*,0A*
  1
*
  1
*
 70
     0
  1
*
  1
*
  0
XRECORD
  5
53
102
{ACAD_REACTORS
330
45
102
}
330
45
100
AcDbXrecord
280
     1
  1
02現況平面図
  1
00*,01*,0B*
  1
*
  1
*
 70
     0
  1
*
  1
*
  0
XRECORD
  5
54
102
{ACAD_REACTORS
330
45
102
}
330
45
100
AcDbXrecord
280
     1
  1
03撤去平面図
  1
00*,01*,0C*
  1
*
  1
*
 70
     0
  1
*
  1
*
  0
XRECORD
  5
55
102
{ACAD_REACTORS
330
45
102
}
330
45
100
AcDbXrecord
280
     1
  1
04造成平面図
  1
00*,02計*,0D*,03*,01*
  1
*
  1
*
 70
     0
  1
*
  1
*
  0
XRECORD
  5
56
102
{ACAD_REACTORS
330
45
102
}
330
45
100
AcDbXrecord
280
     1
  1
05
  1
*05*
  1
*
  1
*
 70
     0
  1
*
  1
*
  0
XRECORD
  5
57
102
{ACAD_REACTORS
330
45
102
}
330
45
100
AcDbXrecord
280
     1
  1
05施設平面図
  1
00*,02*,0E*,05*
  1
*
  1
*
 70
     0
  1
*
  1
*
  0
XRECORD
  5
58
102
{ACAD_REACTORS
330
45
102
}
330
45
100
AcDbXrecord
280
     1
  1
06
  1
06*
  1
*
  1
*
 70
     0
  1
*
  1
*
  0
XRECORD
  5
59
102
{ACAD_REACTORS
330
45
102
}
330
45
100
AcDbXrecord
280
     1
  1
06siki
  1
06*siki*,sikiti,00waku,*|*
  1
*
  1
*
 70
     0
  1
*
  1
*
  0
XRECORD
  5
5A
102
{ACAD_REACTORS
330
45
102
}
330
45
100
AcDbXrecord
280
     1
  1
06siki2
  1
06*siki*,sikiti,00waku,*|*
  1
*
  1
*
 70
     0
  1
*
  1
*
  0
XRECORD
  5
5B
102
{ACAD_REACTORS
330
45
102
}
330
45
100
AcDbXrecord
280
     1
  1
06排水平面図
  1
00*,02*,0F*
  1
*
  1
*
 70
     0
  1
*
  1
*
  0
XRECORD
  5
5C
102
{ACAD_REACTORS
330
45
102
}
330
45
100
AcDbXrecord
280
     1
  1
07
  1
07*
  1
*
  1
*
 70
     0
  1
*
  1
*
  0
XRECORD
  5
5D
102
{ACAD_REACTORS
330
45
102
}
330
45
100
AcDbXrecord
280
     1
  1
07給水平面図
  1
00*,02*,0G*
  1
*
  1
*
 70
     0
  1
*
  1
*
  0
XRECORD
  5
5E
102
{ACAD_REACTORS
330
45
102
}
330
45
100
AcDbXrecord
280
     1
  1
0割付平面図
  1
*わ*
  1
*
  1
*
 70
     0
  1
*
  1
*
  0
XRECORD
  5
5F
102
{ACAD_REACTORS
330
45
102
}
330
45
100
AcDbXrecord
280
     1
  1
0潅水平面
  1
*三*
  1
*
  1
*
 70
     0
  1
*
  1
*
  0
XRECORD
  5
60
102
{ACAD_REACTORS
330
45
102
}
330
45
100
AcDbXrecord
280
     1
  1
0計画平面
  1
*け*
  1
*
  1
*
 70
     0
  1
*
  1
*
  0
XRECORD
  5
61
102
{ACAD_REACTORS
330
45
102
}
330
45
100
AcDbXrecord
280
     1
  1
0高木植栽
  1
*こ*
  1
*
  1
*
 70
     0
  1
*
  1
*
  0
XRECORD
  5
62
102
{ACAD_REACTORS
330
45
102
}
330
45
100
AcDbXrecord
280
     1
  1
0施設平面
  1
*し*
  1
*
  1
*
 70
     0
  1
*
  1
*
  0
XRECORD
  5
63
102
{ACAD_REACTORS
330
45
102
}
330
45
100
AcDbXrecord
280
     1
  1
0床内
  1
FI-*
  1
*
  1
*
 70
     0
  1
*
  1
*
  0
XRECORD
  5
64
102
{ACAD_REACTORS
330
45
102
}
330
45
100
AcDbXrecord
280
     1
  1
0床壁
  1
FW*
  1
*
  1
*
 70
     0
  1
*
  1
*
  0
XRECORD
  5
65
102
{ACAD_REACTORS
330
45
102
}
330
45
100
AcDbXrecord
280
     1
  1
0照明配置図
  1
*め*
  1
*
  1
*
 70
     0
  1
*
  1
*
  0
XRECORD
  5
66
102
{ACAD_REACTORS
330
45
102
}
330
45
100
AcDbXrecord
280
     1
  1
0詳細図
  1
*-d
  1
*
  1
*
 70
     0
  1
*
  1
*
  0
XRECORD
  5
67
102
{ACAD_REACTORS
330
45
102
}
330
45
100
AcDbXrecord
280
     1
  1
0植栽基盤
  1
*ど*
  1
*
  1
*
 70
     0
  1
*
  1
*
  0
XRECORD
  5
68
102
{ACAD_REACTORS
330
45
102
}
330
45
100
AcDbXrecord
280
     1
  1
0全体工区区分図
  1
*ぜ*
  1
*
  1
*
 70
     0
  1
*
  1
*
  0
XRECORD
  5
69
102
{ACAD_REACTORS
330
45
102
}
330
45
100
AcDbXrecord
280
     1
  1
0総合図off
  1
*-s
  1
*
  1
*
 70
     0
  1
*
  1
*
  0
XRECORD
  5
6A
102
{ACAD_REACTORS
330
45
102
}
330
45
100
AcDbXrecord
280
     1
  1
0総合図枠
  1
*-2
  1
*
  1
*
 70
     0
  1
*
  1
*
  0
XRECORD
  5
6B
102
{ACAD_REACTORS
330
45
102
}
330
45
100
AcDbXrecord
280
     1
  1
0低木
  1
*て*
  1
*
  1
*
 70
     0
  1
*
  1
*
  0
XRECORD
  5
6C
102
{ACAD_REACTORS
330
45
102
}
330
45
100
AcDbXrecord
280
     1
  1
0排水平面
  1
*は*
  1
*
  1
*
 70
     0
  1
*
  1
*
  0
XRECORD
  5
6D
102
{ACAD_REACTORS
330
45
102
}
330
45
100
AcDbXrecord
280
     1
  1
0平詳枠
  1
*-1
  1
*
  1
*
 70
     0
  1
*
  1
*
  0
XRECORD
  5
6E
102
{ACAD_REACTORS
330
45
102
}
330
45
100
AcDbXrecord
280
     1
  1
0擁壁平面図
  1
*よ*
  1
*
  1
*
 70
     0
  1
*
  1
*
  0
XRECORD
  5
6F
102
{ACAD_REACTORS
330
45
102
}
330
45
100
AcDbXrecord
280
     1
  1
1
  1
*
  1
*
  1
*
 70
     0
  1
*
  1
*
  0
XRECORD
  5
70
102
{ACAD_REACTORS
330
45
102
}
330
45
100
AcDbXrecord
280
     1
  1
10
  1
*
  1
10
  1
*
 70
     0
  1
*
  1
*
  0
XRECORD
  5
71
102
{ACAD_REACTORS
330
45
102
}
330
45
100
AcDbXrecord
280
     1
  1
100
  1
50*
  1
*
  1
*
 70
     0
  1
*
  1
*
  0
XRECORD
  5
72
102
{ACAD_REACTORS
330
45
102
}
330
45
100
AcDbXrecord
280
     1
  1
10植栽平面図
  1
00*,02*,0I*
  1
*
  1
*
 70
     0
  1
*
  1
*
  0
XRECORD
  5
73
102
{ACAD_REACTORS
330
45
102
}
330
45
100
AcDbXrecord
280
     1
  1
11
  1
11*
  1
*
  1
*
 70
     0
  1
*
  1
*
  0
XRECORD
  5
74
102
{ACAD_REACTORS
330
45
102
}
330
45
100
AcDbXrecord
280
     1
  1
1111
  1
*-50
  1
*
  1
*
 70
     0
  1
*
  1
*
  0
XRECORD
  5
75
102
{ACAD_REACTORS
330
45
102
}
330
45
100
AcDbXrecord
280
     1
  1
11寸法図
  1
00*,02*,0K*,03*
  1
*
  1
*
 70
     0
  1
*
  1
*
  0
XRECORD
  5
76
102
{ACAD_REACTORS
330
45
102
}
330
45
100
AcDbXrecord
280
     1
  1
12
  1
*
  1
*12
  1
*
 70
     0
  1
*
  1
*
  0
XRECORD
  5
77
102
{ACAD_REACTORS
330
45
102
}
330
45
100
AcDbXrecord
280
     1
  1
19
  1
*19*
  1
*
  1
*
 70
     0
  1
*
  1
*
  0
XRECORD
  5
78
102
{ACAD_REACTORS
330
45
102
}
330
45
100
AcDbXrecord
280
     1
  1
１Ｆ床伏OFF
  1
-*
  1
*
  1
*
 70
     0
  1
*
  1
*
  0
XRECORD
  5
79
102
{ACAD_REACTORS
330
45
102
}
330
45
100
AcDbXrecord
280
     1
  1
1階
  1
*1階*
  1
*
  1
*
 70
     0
  1
*
  1
*
  0
XRECORD
  5
7A
102
{ACAD_REACTORS
330
45
102
}
330
45
100
AcDbXrecord
280
     1
  1
1床
  1
F-*
  1
*
  1
*
 70
     0
  1
*
  1
*
  0
XRECORD
  5
7B
102
{ACAD_REACTORS
330
45
102
}
330
45
100
AcDbXrecord
280
     1
  1
1芯
  1
1*
  1
*
  1
*
 70
     0
  1
*
  1
*
  0
XRECORD
  5
7C
102
{ACAD_REACTORS
330
45
102
}
330
45
100
AcDbXrecord
280
     1
  1
1芯線
  1
1*
  1
*
  1
*
 70
     0
  1
*
  1
*
  0
XRECORD
  5
7D
102
{ACAD_REACTORS
330
45
102
}
330
45
100
AcDbXrecord
280
     1
  1
20
  1
*20
  1
*
  1
*
 70
     0
  1
*
  1
*
  0
XRECORD
  5
7E
102
{ACAD_REACTORS
330
45
102
}
330
45
100
AcDbXrecord
280
     1
  1
21
  1
*
  1
21
  1
*
 70
     0
  1
*
  1
*
  0
XRECORD
  5
7F
102
{ACAD_REACTORS
330
45
102
}
330
45
100
AcDbXrecord
280
     1
  1
250
  1
*250*
  1
*
  1
*
 70
     0
  1
*
  1
*
  0
XRECORD
  5
80
102
{ACAD_REACTORS
330
45
102
}
330
45
100
AcDbXrecord
280
     1
  1
2fmiage
  1
*
  1
*
  1
*
 70
     1
  1
*
  1
*
  0
XRECORD
  5
81
102
{ACAD_REACTORS
330
45
102
}
330
45
100
AcDbXrecord
280
     1
  1
2躯体
  1
2*
  1
*
  1
*
 70
     0
  1
*
  1
*
  0
XRECORD
  5
82
102
{ACAD_REACTORS
330
45
102
}
330
45
100
AcDbXrecord
280
     1
  1
2断面
  1
2*
  1
*
  1
*
 70
     0
  1
*
  1
*
  0
XRECORD
  5
83
102
{ACAD_REACTORS
330
45
102
}
330
45
100
AcDbXrecord
280
     1
  1
2壁
  1
W-*
  1
*
  1
*
 70
     0
  1
*
  1
*
  0
XRECORD
  5
84
102
{ACAD_REACTORS
330
45
102
}
330
45
100
AcDbXrecord
280
     1
  1
300
  1
*300*
  1
*
  1
*
 70
     0
  1
*
  1
*
  0
XRECORD
  5
85
102
{ACAD_REACTORS
330
45
102
}
330
45
100
AcDbXrecord
280
     1
  1
32
  1
*
  1
32
  1
*
 70
     0
  1
*
  1
*
  0
XRECORD
  5
86
102
{ACAD_REACTORS
330
45
102
}
330
45
100
AcDbXrecord
280
     1
  1
333
  1
*
  1
*
  1
*
 70
    12
  1
*
  1
*
  0
XRECORD
  5
87
102
{ACAD_REACTORS
330
45
102
}
330
45
100
AcDbXrecord
280
     1
  1
37
  1
*37
  1
*
  1
*
 70
     0
  1
*
  1
*
  0
XRECORD
  5
88
102
{ACAD_REACTORS
330
45
102
}
330
45
100
AcDbXrecord
280
     1
  1
3D
  1
3D*
  1
*
  1
*
 70
     0
  1
*
  1
*
  0
XRECORD
  5
89
102
{ACAD_REACTORS
330
45
102
}
330
45
100
AcDbXrecord
280
     1
  1
3開口
  1
3*
  1
*
  1
*
 70
     0
  1
*
  1
*
  0
XRECORD
  5
8A
102
{ACAD_REACTORS
330
45
102
}
330
45
100
AcDbXrecord
280
     1
  1
3見掛り
  1
3*
  1
*
  1
*
 70
     0
  1
*
  1
*
  0
XRECORD
  5
8B
102
{ACAD_REACTORS
330
45
102
}
330
45
100
AcDbXrecord
280
     1
  1
3天井内
  1
CI-*
  1
*
  1
*
 70
     0
  1
*
  1
*
  0
XRECORD
  5
8C
102
{ACAD_REACTORS
330
45
102
}
330
45
100
AcDbXrecord
280
     1
  1
41
  1
41
  1
*
  1
*
 70
     1
  1
*
  1
*
  0
XRECORD
  5
8D
102
{ACAD_REACTORS
330
45
102
}
330
45
100
AcDbXrecord
280
     1
  1
4仕上げ
  1
4*
  1
*
  1
*
 70
     0
  1
*
  1
*
  0
XRECORD
  5
8E
102
{ACAD_REACTORS
330
45
102
}
330
45
100
AcDbXrecord
280
     1
  1
4天井
  1
C-*
  1
*
  1
*
 70
     0
  1
*
  1
*
  0
XRECORD
  5
8F
102
{ACAD_REACTORS
330
45
102
}
330
45
100
AcDbXrecord
280
     1
  1
5
  1
*5
  1
*
  1
*
 70
     1
  1
*
  1
*
  0
XRECORD
  5
90
102
{ACAD_REACTORS
330
45
102
}
330
45
100
AcDbXrecord
280
     1
  1
50
  1
*-50
  1
*
  1
*
 70
     0
  1
*
  1
*
  0
XRECORD
  5
91
102
{ACAD_REACTORS
330
45
102
}
330
45
100
AcDbXrecord
280
     1
  1
50off
  1
50*
  1
*
  1
*
 70
     0
  1
*
  1
*
  0
XRECORD
  5
92
102
{ACAD_REACTORS
330
45
102
}
330
45
100
AcDbXrecord
280
     1
  1
51-52
  1
5*
  1
*
  1
*
 70
     0
  1
*
  1
*
  0
XRECORD
  5
93
102
{ACAD_REACTORS
330
45
102
}
330
45
100
AcDbXrecord
280
     1
  1
555
  1
*
  1
*
  1
*
 70
     1
  1
*
  1
*
  0
XRECORD
  5
94
102
{ACAD_REACTORS
330
45
102
}
330
45
100
AcDbXrecord
280
     1
  1
5寸法
  1
5*
  1
*
  1
*
 70
     0
  1
*
  1
*
  0
XRECORD
  5
95
102
{ACAD_REACTORS
330
45
102
}
330
45
100
AcDbXrecord
280
     1
  1
5文字
  1
*TXT*
  1
*
  1
*
 70
     0
  1
*
  1
*
  0
XRECORD
  5
96
102
{ACAD_REACTORS
330
45
102
}
330
45
100
AcDbXrecord
280
     1
  1
6
  1
*
  1
6
  1
*
 70
     0
  1
*
  1
*
  0
XRECORD
  5
97
102
{ACAD_REACTORS
330
45
102
}
330
45
100
AcDbXrecord
280
     1
  1
66-躯体図
  1
0,Defpoints,HOJO,雲マーク,000*,010*,020*,1*,400*,470*,520*,570*,08*
  1
*
  1
*
 70
     0
  1
*
  1
*
  0
XRECORD
  5
98
102
{ACAD_REACTORS
330
45
102
}
330
45
100
AcDbXrecord
280
     1
  1
66躯体図
  1
0,Defpoints,HOJO,雲マーク,000*,010*,020*,1*,400*,470*,520*,570*,08*,6*
  1
*
  1
*
 70
     0
  1
*
  1
*
  0
XRECORD
  5
99
102
{ACAD_REACTORS
330
45
102
}
330
45
100
AcDbXrecord
280
     1
  1
6記号
  1
6*
  1
*
  1
*
 70
     0
  1
*
  1
*
  0
XRECORD
  5
9A
102
{ACAD_REACTORS
330
45
102
}
330
45
100
AcDbXrecord
280
     1
  1
6文字
  1
6*
  1
*
  1
*
 70
     0
  1
*
  1
*
  0
XRECORD
  5
9B
102
{ACAD_REACTORS
330
45
102
}
330
45
100
AcDbXrecord
280
     1
  1
6保留
  1
*_a
  1
*
  1
*
 70
     0
  1
*
  1
*
  0
XRECORD
  5
9C
102
{ACAD_REACTORS
330
45
102
}
330
45
100
AcDbXrecord
280
     1
  1
767
  1
*
  1
*
  1
*
 70
     0
  1
*
  1
*
  0
XRECORD
  5
9D
102
{ACAD_REACTORS
330
45
102
}
330
45
100
AcDbXrecord
280
     1
  1
767SE13-0...$
  1
*
  1
*
  1
*
 70
     0
  1
*
  1
*
  0
XRECORD
  5
9E
102
{ACAD_REACTORS
330
45
102
}
330
45
100
AcDbXrecord
280
     1
  1
767SE13-07-99$0$
  1
*
  1
*
  1
*
 70
     0
  1
*
  1
*
  0
XRECORD
  5
9F
102
{ACAD_REACTORS
330
45
102
}
330
45
100
AcDbXrecord
280
     1
  1
7記号
  1
7*
  1
*
  1
*
 70
     0
  1
*
  1
*
  0
XRECORD
  5
A0
102
{ACAD_REACTORS
330
45
102
}
330
45
100
AcDbXrecord
280
     1
  1
8
  1
*
  1
8
  1
*
 70
    12
  1
*
  1
*
  0
XRECORD
  5
A1
102
{ACAD_REACTORS
330
45
102
}
330
45
100
AcDbXrecord
280
     1
  1
8寸法
  1
8*
  1
*
  1
*
 70
     0
  1
*
  1
*
  0
XRECORD
  5
A2
102
{ACAD_REACTORS
330
45
102
}
330
45
100
AcDbXrecord
280
     1
  1
8設備
  1
8*
  1
*
  1
*
 70
     0
  1
*
  1
*
  0
XRECORD
  5
A3
102
{ACAD_REACTORS
330
45
102
}
330
45
100
AcDbXrecord
280
     1
  1
9文字
  1
9*
  1
*
  1
*
 70
     0
  1
*
  1
*
  0
XRECORD
  5
A4
102
{ACAD_REACTORS
330
45
102
}
330
45
100
AcDbXrecord
280
     1
  1
9目地
  1
9*
  1
*
  1
*
 70
     0
  1
*
  1
*
  0
XRECORD
  5
A5
102
{ACAD_REACTORS
330
45
102
}
330
45
100
AcDbXrecord
280
     1
  1
A
  1
A*
  1
*
  1
*
 70
     0
  1
*
  1
*
  0
XRECORD
  5
A6
102
{ACAD_REACTORS
330
45
102
}
330
45
100
AcDbXrecord
280
     1
  1
A-
  1
A-*
  1
*
  1
*
 70
     0
  1
*
  1
*
  0
XRECORD
  5
A7
102
{ACAD_REACTORS
330
45
102
}
330
45
100
AcDbXrecord
280
     1
  1
A(枠･表)を表示
  1
A*
  1
*
  1
*
 70
     0
  1
*
  1
*
  0
XRECORD
  5
A8
102
{ACAD_REACTORS
330
45
102
}
330
45
100
AcDbXrecord
280
     1
  1
A01
  1
*A01*
  1
*
  1
*
 70
     0
  1
*
  1
*
  0
XRECORD
  5
A9
102
{ACAD_REACTORS
330
45
102
}
330
45
100
AcDbXrecord
280
     1
  1
A1.DEMO-KEY NOTE
  1
*-D-*
  1
*
  1
*
 70
     0
  1
*
  1
*
  0
XRECORD
  5
AA
102
{ACAD_REACTORS
330
45
102
}
330
45
100
AcDbXrecord
280
     1
  1
A2. CONS-KEY NOTE
  1
*-C-*
  1
*
  1
*
 70
     0
  1
*
  1
*
  0
XRECORD
  5
AB
102
{ACAD_REACTORS
330
45
102
}
330
45
100
AcDbXrecord
280
     1
  1
A21
  1
*A21*
  1
*
  1
*
 70
     0
  1
*
  1
*
  0
XRECORD
  5
AC
102
{ACAD_REACTORS
330
45
102
}
330
45
100
AcDbXrecord
280
     1
  1
A3
  1
*A3
  1
*
  1
*
 70
     0
  1
*
  1
*
  0
XRECORD
  5
AD
102
{ACAD_REACTORS
330
45
102
}
330
45
100
AcDbXrecord
280
     1
  1
A3. RCP-LAYER
  1
*R-SCH*
  1
*
  1
*
 70
     0
  1
*
  1
*
  0
XRECORD
  5
AE
102
{ACAD_REACTORS
330
45
102
}
330
45
100
AcDbXrecord
280
     1
  1
A3D. RCP_DEMO-KEY NOTE
  1
*-RD-*
  1
*
  1
*
 70
     0
  1
*
  1
*
  0
XRECORD
  5
AF
102
{ACAD_REACTORS
330
45
102
}
330
45
100
AcDbXrecord
280
     1
  1
A4. P&T- KEY NOTE
  1
*T-SCH*
  1
*
  1
*
 70
     0
  1
*
  1
*
  0
XRECORD
  5
B0
102
{ACAD_REACTORS
330
45
102
}
330
45
100
AcDbXrecord
280
     1
  1
A4D. EL_DEMO-KEY NOTE
  1
*-ED-*
  1
*
  1
*
 70
     0
  1
*
  1
*
  0
XRECORD
  5
B1
102
{ACAD_REACTORS
330
45
102
}
330
45
100
AcDbXrecord
280
     1
  1
A5. FINISH-KEY NOTE
  1
*-N-*
  1
*
  1
*
 70
     0
  1
*
  1
*
  0
XRECORD
  5
B2
102
{ACAD_REACTORS
330
45
102
}
330
45
100
AcDbXrecord
280
     1
  1
A6. FURN-KEY NOTE
  1
*-F-*
  1
*
  1
*
 70
     0
  1
*
  1
*
  0
XRECORD
  5
B3
102
{ACAD_REACTORS
330
45
102
}
330
45
100
AcDbXrecord
280
     1
  1
aa
  1
*aa*
  1
*
  1
*
 70
     0
  1
*
  1
*
  0
XRECORD
  5
B4
102
{ACAD_REACTORS
330
45
102
}
330
45
100
AcDbXrecord
280
     1
  1
aaa
  1
*
  1
*
  1
*
 70
     0
  1
*
  1
*
  0
XRECORD
  5
B5
102
{ACAD_REACTORS
330
45
102
}
330
45
100
AcDbXrecord
280
     1
  1
AB棟
  1
ＡＢ棟*
  1
*
  1
*
 70
     0
  1
*
  1
*
  0
XRECORD
  5
B6
102
{ACAD_REACTORS
330
45
102
}
330
45
100
AcDbXrecord
280
     1
  1
ＡＢ棟
  1
ＡＢ棟*
  1
*
  1
*
 70
     0
  1
*
  1
*
  0
XRECORD
  5
B7
102
{ACAD_REACTORS
330
45
102
}
330
45
100
AcDbXrecord
280
     1
  1
ACTIVE
  1
C.*
  1
*
  1
*
 70
     0
  1
*
  1
*
  0
XRECORD
  5
B8
102
{ACAD_REACTORS
330
45
102
}
330
45
100
AcDbXrecord
280
     1
  1
ACTIVE2
  1
B-*
  1
*
  1
*
 70
     0
  1
*
  1
*
  0
XRECORD
  5
B9
102
{ACAD_REACTORS
330
45
102
}
330
45
100
AcDbXrecord
280
     1
  1
ALC
  1
*ALC
  1
*
  1
*
 70
     0
  1
*
  1
*
  0
XRECORD
  5
BA
102
{ACAD_REACTORS
330
45
102
}
330
45
100
AcDbXrecord
280
     1
  1
ALL
  1
*
  1
*
  1
*
 70
     3
  1
*
  1
*
  0
XRECORD
  5
BB
102
{ACAD_REACTORS
330
45
102
}
330
45
100
AcDbXrecord
280
     1
  1
all選択
  1
*
  1
*
  1
*
 70
     0
  1
*
  1
*
  0
XRECORD
  5
BC
102
{ACAD_REACTORS
330
45
102
}
330
45
100
AcDbXrecord
280
     1
  1
AMENAGEMENT
  1
*
  1
*
  1
*
 70
    13
  1
*
  1
*
  0
XRECORD
  5
BD
102
{ACAD_REACTORS
330
45
102
}
330
45
100
AcDbXrecord
280
     1
  1
AQ
  1
AQ*
  1
*
  1
*
 70
     0
  1
*
  1
*
  0
XRECORD
  5
BE
102
{ACAD_REACTORS
330
45
102
}
330
45
100
AcDbXrecord
280
     1
  1
ARBOL
  1
*ARBOL*
  1
*
  1
*
 70
     0
  1
*
  1
*
  0
XRECORD
  5
BF
102
{ACAD_REACTORS
330
45
102
}
330
45
100
AcDbXrecord
280
     1
  1
AREA
  1
*AREA*
  1
*
  1
*
 70
     0
  1
*
  1
*
  0
XRECORD
  5
C0
102
{ACAD_REACTORS
330
45
102
}
330
45
100
AcDbXrecord
280
     1
  1
AREA-SG
  1
*6AREA-SG
  1
6
  1
*
 70
     0
  1
*
  1
*
  0
XRECORD
  5
C1
102
{ACAD_REACTORS
330
45
102
}
330
45
100
AcDbXrecord
280
     1
  1
AS1
  1
*AS1
  1
*
  1
*
 70
     0
  1
*
  1
*
  0
XRECORD
  5
C2
102
{ACAD_REACTORS
330
45
102
}
330
45
100
AcDbXrecord
280
     1
  1
aハッチング
  1
a*
  1
*
  1
*
 70
     0
  1
*
  1
*
  0
XRECORD
  5
C3
102
{ACAD_REACTORS
330
45
102
}
330
45
100
AcDbXrecord
280
     1
  1
A空調
  1
*
  1
*
  1
*
 70
     0
  1
*
  1
KUCYOU
  0
XRECORD
  5
C4
102
{ACAD_REACTORS
330
45
102
}
330
45
100
AcDbXrecord
280
     1
  1
B
  1
B*
  1
*
  1
*
 70
     0
  1
*
  1
*
  0
XRECORD
  5
C5
102
{ACAD_REACTORS
330
45
102
}
330
45
100
AcDbXrecord
280
     1
  1
B(基準)を表示
  1
B*
  1
*
  1
*
 70
     0
  1
*
  1
*
  0
XRECORD
  5
C6
102
{ACAD_REACTORS
330
45
102
}
330
45
100
AcDbXrecord
280
     1
  1
B2
  1
B2*
  1
*
  1
*
 70
     1
  1
*
  1
*
  0
XRECORD
  5
C7
102
{ACAD_REACTORS
330
45
102
}
330
45
100
AcDbXrecord
280
     1
  1
B3
  1
B3*
  1
*
  1
*
 70
     0
  1
*
  1
*
  0
XRECORD
  5
C8
102
{ACAD_REACTORS
330
45
102
}
330
45
100
AcDbXrecord
280
     1
  1
BAL
  1
*BAL
  1
*
  1
*
 70
     0
  1
*
  1
*
  0
XRECORD
  5
C9
102
{ACAD_REACTORS
330
45
102
}
330
45
100
AcDbXrecord
280
     1
  1
baru
  1
*51A
  1
*
  1
*
 70
     0
  1
*
  1
*
  0
XRECORD
  5
CA
102
{ACAD_REACTORS
330
45
102
}
330
45
100
AcDbXrecord
280
     1
  1
baru2
  1
*AS1A
  1
*
  1
*
 70
     0
  1
*
  1
*
  0
XRECORD
  5
CB
102
{ACAD_REACTORS
330
45
102
}
330
45
100
AcDbXrecord
280
     1
  1
BASE
  1
*I4BASE
  1
*
  1
*
 70
     0
  1
*
  1
*
  0
XRECORD
  5
CC
102
{ACAD_REACTORS
330
45
102
}
330
45
100
AcDbXrecord
280
     1
  1
bb
  1
rogarpissu,block
  1
*
  1
*
 70
     0
  1
*
  1
*
  0
XRECORD
  5
CD
102
{ACAD_REACTORS
330
45
102
}
330
45
100
AcDbXrecord
280
     1
  1
bbbb
  1
prova
  1
*
  1
*
 70
    55
  1
*
  1
*
  0
XRECORD
  5
CE
102
{ACAD_REACTORS
330
45
102
}
330
45
100
AcDbXrecord
280
     1
  1
beam
  1
*beam*
  1
*
  1
*
 70
     0
  1
*
  1
*
  0
XRECORD
  5
CF
102
{ACAD_REACTORS
330
45
102
}
330
45
100
AcDbXrecord
280
     1
  1
blocchi
  1
mqa*
  1
*
  1
*
 70
     0
  1
*
  1
*
  0
XRECORD
  5
D0
102
{ACAD_REACTORS
330
45
102
}
330
45
100
AcDbXrecord
280
     1
  1
blue
  1
*
  1
blue
  1
*
 70
     0
  1
*
  1
*
  0
XRECORD
  5
D1
102
{ACAD_REACTORS
330
45
102
}
330
45
100
AcDbXrecord
280
     1
  1
BSM
  1
*BSM*
  1
*
  1
*
 70
     0
  1
*
  1
*
  0
XRECORD
  5
D2
102
{ACAD_REACTORS
330
45
102
}
330
45
100
AcDbXrecord
280
     1
  1
b階段
  1
b*
  1
*
  1
*
 70
     0
  1
*
  1
*
  0
XRECORD
  5
D3
102
{ACAD_REACTORS
330
45
102
}
330
45
100
AcDbXrecord
280
     1
  1
B電気
  1
*
  1
*
  1
*
 70
     0
  1
*
  1
DENKI
  0
XRECORD
  5
D4
102
{ACAD_REACTORS
330
45
102
}
330
45
100
AcDbXrecord
280
     1
  1
c
  1
c*
  1
*
  1
*
 70
    61
  1
*
  1
*
  0
XRECORD
  5
D5
102
{ACAD_REACTORS
330
45
102
}
330
45
100
AcDbXrecord
280
     1
  1
c-block
  1
c-*
  1
*
  1
*
 70
     0
  1
*
  1
*
  0
XRECORD
  5
D6
102
{ACAD_REACTORS
330
45
102
}
330
45
100
AcDbXrecord
280
     1
  1
c-block-2
  1
c-*
  1
*
  1
*
 70
  1024
  1
*
  1
*
  0
XRECORD
  5
D7
102
{ACAD_REACTORS
330
45
102
}
330
45
100
AcDbXrecord
280
     1
  1
C(寸･文･記)を表示
  1
C*
  1
*
  1
*
 70
     0
  1
*
  1
*
  0
XRECORD
  5
D8
102
{ACAD_REACTORS
330
45
102
}
330
45
100
AcDbXrecord
280
     1
  1
cajetin
  1
caj*
  1
*
  1
*
 70
     0
  1
*
  1
*
  0
XRECORD
  5
D9
102
{ACAD_REACTORS
330
45
102
}
330
45
100
AcDbXrecord
280
     1
  1
cc
  1
*
  1
*
  1
*
 70
     0
  1
*
  1
*
  0
XRECORD
  5
DA
102
{ACAD_REACTORS
330
45
102
}
330
45
100
AcDbXrecord
280
     1
  1
CD06
  1
CD06*
  1
*
  1
*
 70
     0
  1
*
  1
*
  0
XRECORD
  5
DB
102
{ACAD_REACTORS
330
45
102
}
330
45
100
AcDbXrecord
280
     1
  1
ＣＤ棟
  1
T15-*
  1
*
  1
*
 70
     0
  1
*
  1
*
  0
XRECORD
  5
DC
102
{ACAD_REACTORS
330
45
102
}
330
45
100
AcDbXrecord
280
     1
  1
ceiling
  1
*ceiling*
  1
*
  1
*
 70
     0
  1
*
  1
*
  0
XRECORD
  5
DD
102
{ACAD_REACTORS
330
45
102
}
330
45
100
AcDbXrecord
280
     1
  1
CEILINGS XREF
  1
*CE-SUSPENDED-CEILINGS
  1
*
  1
*
 70
     0
  1
*
  1
*
  0
XRECORD
  5
DE
102
{ACAD_REACTORS
330
45
102
}
330
45
100
AcDbXrecord
280
     1
  1
CEL
  1
*
  1
*
  1
*
 70
     0
  1
*
  1
*
  0
XRECORD
  5
DF
102
{ACAD_REACTORS
330
45
102
}
330
45
100
AcDbXrecord
280
     1
  1
che
  1
che*
  1
*
  1
*
 70
     0
  1
*
  1
*
  0
XRECORD
  5
E0
102
{ACAD_REACTORS
330
45
102
}
330
45
100
AcDbXrecord
280
     1
  1
chika
  1
2躯体構造体点線
  1
211
  1
*
 70
     0
  1
*
  1
*
  0
XRECORD
  5
E1
102
{ACAD_REACTORS
330
45
102
}
330
45
100
AcDbXrecord
280
     1
  1
CLG
  1
*CLG*
  1
*
  1
*
 70
     0
  1
*
  1
*
  0
XRECORD
  5
E2
102
{ACAD_REACTORS
330
45
102
}
330
45
100
AcDbXrecord
280
     1
  1
COL
  1
*COL*
  1
*
  1
*
 70
     0
  1
*
  1
*
  0
XRECORD
  5
E3
102
{ACAD_REACTORS
330
45
102
}
330
45
100
AcDbXrecord
280
     1
  1
cold beam
  1
*cold*
  1
*
  1
*
 70
     0
  1
*
  1
*
  0
XRECORD
  5
E4
102
{ACAD_REACTORS
330
45
102
}
330
45
100
AcDbXrecord
280
     1
  1
colu
  1
*colu*
  1
*
  1
*
 70
     0
  1
*
  1
*
  0
XRECORD
  5
E5
102
{ACAD_REACTORS
330
45
102
}
330
45
100
AcDbXrecord
280
     1
  1
com
  1
com*
  1
*
  1
*
 70
     0
  1
*
  1
*
  0
XRECORD
  5
E6
102
{ACAD_REACTORS
330
45
102
}
330
45
100
AcDbXrecord
280
     1
  1
con
  1
c-*
  1
*
  1
*
 70
     0
  1
*
  1
*
  0
XRECORD
  5
E7
102
{ACAD_REACTORS
330
45
102
}
330
45
100
AcDbXrecord
280
     1
  1
CRG
  1
tca-6f|*CRG*
  1
*
  1
*
 70
     0
  1
*
  1
*
  0
XRECORD
  5
E8
102
{ACAD_REACTORS
330
45
102
}
330
45
100
AcDbXrecord
280
     1
  1
cyan
  1
*
  1
cyan
  1
*
 70
     0
  1
*
  1
*
  0
XRECORD
  5
E9
102
{ACAD_REACTORS
330
45
102
}
330
45
100
AcDbXrecord
280
     1
  1
C衛生
  1
*
  1
*
  1
*
 70
     0
  1
*
  1
EISEI
  0
XRECORD
  5
EA
102
{ACAD_REACTORS
330
45
102
}
330
45
100
AcDbXrecord
280
     1
  1
C街区関連
  1
*
  1
*
  1
*
 70
  1024
  1
*
  1
*
  0
XRECORD
  5
EB
102
{ACAD_REACTORS
330
45
102
}
330
45
100
AcDbXrecord
280
     1
  1
c雑金物
  1
c*
  1
*
  1
*
 70
     0
  1
*
  1
*
  0
XRECORD
  5
EC
102
{ACAD_REACTORS
330
45
102
}
330
45
100
AcDbXrecord
280
     1
  1
C打計画図
  1
001*,002*,003*,004*,005*,007*,012*,015*,016*,017*,018*,019*,020*,021*,049*,050*,051*,052*,053*,054*,055*,056*,057*,058*,059*,060*,061*,062*,063*,064*,065*,066*,067*,068*,069*,070*,071*,072*,073*,074*,075*
  1
*
  1
*
 70
     0
  1
*
  1
*
  0
XRECORD
  5
ED
102
{ACAD_REACTORS
330
45
102
}
330
45
100
AcDbXrecord
280
     1
  1
D
  1
D*
  1
*
  1
*
 70
     0
  1
*
  1
*
  0
XRECORD
  5
EE
102
{ACAD_REACTORS
330
45
102
}
330
45
100
AcDbXrecord
280
     1
  1
D(表現補助)を表示
  1
D*
  1
*
  1
*
 70
     0
  1
*
  1
*
  0
XRECORD
  5
EF
102
{ACAD_REACTORS
330
45
102
}
330
45
100
AcDbXrecord
280
     1
  1
Ｄ・墓地　施設平面
  1
*も*
  1
*
  1
*
 70
     0
  1
*
  1
*
  0
XRECORD
  5
F0
102
{ACAD_REACTORS
330
45
102
}
330
45
100
AcDbXrecord
280
     1
  1
D16
  1
D16*
  1
*
  1
*
 70
     0
  1
*
  1
*
  0
XRECORD
  5
F1
102
{ACAD_REACTORS
330
45
102
}
330
45
100
AcDbXrecord
280
     1
  1
DASHED
  1
*
  1
*
  1
DASHED
 70
     0
  1
*
  1
*
  0
XRECORD
  5
F2
102
{ACAD_REACTORS
330
45
102
}
330
45
100
AcDbXrecord
280
     1
  1
DASHED2
  1
*
  1
*
  1
DASHED
 70
     0
  1
*
  1
*
  0
XRECORD
  5
F3
102
{ACAD_REACTORS
330
45
102
}
330
45
100
AcDbXrecord
280
     1
  1
DEMO
  1
*DEMO*
  1
*
  1
*
 70
     0
  1
*
  1
*
  0
XRECORD
  5
F4
102
{ACAD_REACTORS
330
45
102
}
330
45
100
AcDbXrecord
280
     1
  1
DEMOLITION
  1
*DEMO*
  1
*
  1
*
 70
     0
  1
*
  1
*
  0
XRECORD
  5
F5
102
{ACAD_REACTORS
330
45
102
}
330
45
100
AcDbXrecord
280
     1
  1
detail
  1
d*
  1
*
  1
*
 70
     0
  1
*
  1
*
  0
XRECORD
  5
F6
102
{ACAD_REACTORS
330
45
102
}
330
45
100
AcDbXrecord
280
     1
  1
details
  1
det-*
  1
*
  1
*
 70
     0
  1
*
  1
*
  0
XRECORD
  5
F7
102
{ACAD_REACTORS
330
45
102
}
330
45
100
AcDbXrecord
280
     1
  1
DHED
  1
*DHED*
  1
*
  1
*
 70
     0
  1
*
  1
*
  0
XRECORD
  5
F8
102
{ACAD_REACTORS
330
45
102
}
330
45
100
AcDbXrecord
280
     1
  1
Dim
  1
*-Dim*
  1
*
  1
*
 70
     0
  1
*
  1
*
  0
XRECORD
  5
F9
102
{ACAD_REACTORS
330
45
102
}
330
45
100
AcDbXrecord
280
     1
  1
disegno
  1
ben*
  1
*
  1
*
 70
     0
  1
*
  1
*
  0
XRECORD
  5
FA
102
{ACAD_REACTORS
330
45
102
}
330
45
100
AcDbXrecord
280
     1
  1
DOORS
  1
*
  1
*
  1
*
 70
     0
  1
*
  1
*
  0
XRECORD
  5
FB
102
{ACAD_REACTORS
330
45
102
}
330
45
100
AcDbXrecord
280
     1
  1
DR
  1
DR*
  1
*
  1
*
 70
     0
  1
*
  1
*
  0
XRECORD
  5
FC
102
{ACAD_REACTORS
330
45
102
}
330
45
100
AcDbXrecord
280
     1
  1
DT
  1
DT*
  1
*
  1
*
 70
     0
  1
*
  1
*
  0
XRECORD
  5
FD
102
{ACAD_REACTORS
330
45
102
}
330
45
100
AcDbXrecord
280
     1
  1
d外構
  1
d*
  1
*
  1
*
 70
     0
  1
*
  1
*
  0
XRECORD
  5
FE
102
{ACAD_REACTORS
330
45
102
}
330
45
100
AcDbXrecord
280
     1
  1
Ｄ街区低木
  1
*て*
  1
*
  1
*
 70
     0
  1
*
  1
*
  0
XRECORD
  5
FF
102
{ACAD_REACTORS
330
45
102
}
330
45
100
AcDbXrecord
280
     1
  1
D割付平面
  1
*わ*
  1
*
  1
*
 70
     0
  1
*
  1
*
  0
XRECORD
  5
100
102
{ACAD_REACTORS
330
45
102
}
330
45
100
AcDbXrecord
280
     1
  1
Ｄ給水設備
  1
*ゆ*
  1
*
  1
*
 70
     0
  1
*
  1
*
  0
XRECORD
  5
101
102
{ACAD_REACTORS
330
45
102
}
330
45
100
AcDbXrecord
280
     1
  1
Ｄ計画高平面
  1
*さ*
  1
*
  1
*
 70
     0
  1
*
  1
*
  0
XRECORD
  5
102
102
{ACAD_REACTORS
330
45
102
}
330
45
100
AcDbXrecord
280
     1
  1
Ｄ計画平面
  1
*け*
  1
*
  1
*
 70
     0
  1
*
  1
*
  0
XRECORD
  5
103
102
{ACAD_REACTORS
330
45
102
}
330
45
100
AcDbXrecord
280
     1
  1
Ｄ工事区分
  1
*ぶ*
  1
*
  1
*
 70
     0
  1
*
  1
*
  0
XRECORD
  5
104
102
{ACAD_REACTORS
330
45
102
}
330
45
100
AcDbXrecord
280
     1
  1
Ｄ高木植栽
  1
*こ*
  1
*
  1
*
 70
     0
  1
*
  1
*
  0
XRECORD
  5
105
102
{ACAD_REACTORS
330
45
102
}
330
45
100
AcDbXrecord
280
     1
  1
Ｄ施設平面
  1
*し*
  1
*
  1
*
 70
     0
  1
*
  1
*
  0
XRECORD
  5
106
102
{ACAD_REACTORS
330
45
102
}
330
45
100
AcDbXrecord
280
     1
  1
Ｄ照明設備
  1
*め*
  1
*
  1
*
 70
     0
  1
*
  1
*
  0
XRECORD
  5
107
102
{ACAD_REACTORS
330
45
102
}
330
45
100
AcDbXrecord
280
     1
  1
Ｄ低木
  1
*て*
  1
*
  1
*
 70
     0
  1
*
  1
*
  0
XRECORD
  5
108
102
{ACAD_REACTORS
330
45
102
}
330
45
100
AcDbXrecord
280
     1
  1
Ｄ電気設備
  1
*で*
  1
*
  1
*
 70
     0
  1
*
  1
*
  0
XRECORD
  5
109
102
{ACAD_REACTORS
330
45
102
}
330
45
100
AcDbXrecord
280
     1
  1
Ｄ土壌改良
  1
*ど*
  1
*
  1
*
 70
     0
  1
*
  1
*
  0
XRECORD
  5
10A
102
{ACAD_REACTORS
330
45
102
}
330
45
100
AcDbXrecord
280
     1
  1
Ｄ排水平面
  1
*は*
  1
*
  1
*
 70
     0
  1
*
  1
*
  0
XRECORD
  5
10B
102
{ACAD_REACTORS
330
45
102
}
330
45
100
AcDbXrecord
280
     1
  1
D舗装平面
  1
*ほ*
  1
*
  1
*
 70
     0
  1
*
  1
*
  0
XRECORD
  5
10C
102
{ACAD_REACTORS
330
45
102
}
330
45
100
AcDbXrecord
280
     1
  1
Ｄ墓地施設平面
  1
*も*
  1
*
  1
*
 70
     0
  1
*
  1
*
  0
XRECORD
  5
10D
102
{ACAD_REACTORS
330
45
102
}
330
45
100
AcDbXrecord
280
     1
  1
D墓地排水
  1
*は*
  1
*
  1
*
 70
     0
  1
*
  1
*
  0
XRECORD
  5
10E
102
{ACAD_REACTORS
330
45
102
}
330
45
100
AcDbXrecord
280
     1
  1
E
  1
*E-*
  1
*
  1
*
 70
     0
  1
*
  1
*
  0
XRECORD
  5
10F
102
{ACAD_REACTORS
330
45
102
}
330
45
100
AcDbXrecord
280
     1
  1
E(点線系)を表示
  1
E*
  1
*
  1
*
 70
     0
  1
*
  1
*
  0
XRECORD
  5
110
102
{ACAD_REACTORS
330
45
102
}
330
45
100
AcDbXrecord
280
     1
  1
EEEE
  1
*
  1
*
  1
*
 70
  1804
  1
*
  1
*
  0
XRECORD
  5
111
102
{ACAD_REACTORS
330
45
102
}
330
45
100
AcDbXrecord
280
     1
  1
EISEI
  1
*4EISEI
  1
4
  1
*
 70
     0
  1
*
  1
*
  0
XRECORD
  5
112
102
{ACAD_REACTORS
330
45
102
}
330
45
100
AcDbXrecord
280
     1
  1
ele
  1
ele*
  1
*
  1
*
 70
     0
  1
*
  1
*
  0
XRECORD
  5
113
102
{ACAD_REACTORS
330
45
102
}
330
45
100
AcDbXrecord
280
     1
  1
elec
  1
01_elec-tgbt
  1
*
  1
*
 70
     0
  1
*
  1
*
  0
XRECORD
  5
114
102
{ACAD_REACTORS
330
45
102
}
330
45
100
AcDbXrecord
280
     1
  1
ERAS1F
  1
*2ERAS1F
  1
*
  1
*
 70
     0
  1
*
  1
*
  0
XRECORD
  5
115
102
{ACAD_REACTORS
330
45
102
}
330
45
100
AcDbXrecord
280
     1
  1
existing
  1
afl-* 
  1
*
  1
*
 70
     0
  1
*
  1
*
  0
XRECORD
  5
116
102
{ACAD_REACTORS
330
45
102
}
330
45
100
AcDbXrecord
280
     1
  1
Exit
  1
*exit*
  1
*
  1
*
 70
     0
  1
*
  1
*
  0
XRECORD
  5
117
102
{ACAD_REACTORS
330
45
102
}
330
45
100
AcDbXrecord
280
     1
  1
F
  1
F*
  1
*
  1
*
 70
     0
  1
*
  1
*
  0
XRECORD
  5
118
102
{ACAD_REACTORS
330
45
102
}
330
45
100
AcDbXrecord
280
     1
  1
F(断面)を表示
  1
F*
  1
*
  1
*
 70
     0
  1
*
  1
*
  0
XRECORD
  5
119
102
{ACAD_REACTORS
330
45
102
}
330
45
100
AcDbXrecord
280
     1
  1
F1
  1
*
  1
*
  1
*
 70
     0
  1
*
  1
*
  0
XRECORD
  5
11A
102
{ACAD_REACTORS
330
45
102
}
330
45
100
AcDbXrecord
280
     1
  1
face4
  1
*face4*
  1
*
  1
*
 70
     0
  1
*
  1
*
  0
XRECORD
  5
11B
102
{ACAD_REACTORS
330
45
102
}
330
45
100
AcDbXrecord
280
     1
  1
FC_CLADDING
  1
*FC*
  1
*
  1
*
 70
     0
  1
*
  1
*
  0
XRECORD
  5
11C
102
{ACAD_REACTORS
330
45
102
}
330
45
100
AcDbXrecord
280
     1
  1
FENCE
  1
*FENCE*
  1
*
  1
*
 70
     0
  1
*
  1
*
  0
XRECORD
  5
11D
102
{ACAD_REACTORS
330
45
102
}
330
45
100
AcDbXrecord
280
     1
  1
FF
  1
*
  1
*
  1
*
 70
     4
  1
*
  1
*
  0
XRECORD
  5
11E
102
{ACAD_REACTORS
330
45
102
}
330
45
100
AcDbXrecord
280
     1
  1
FH
  1
*FH*
  1
*
  1
*
 70
     0
  1
*
  1
*
  0
XRECORD
  5
11F
102
{ACAD_REACTORS
330
45
102
}
330
45
100
AcDbXrecord
280
     1
  1
FILTER1
  1
*
  1
*
  1
*
 70
     0
  1
*
  1
*
  0
XRECORD
  5
120
102
{ACAD_REACTORS
330
45
102
}
330
45
100
AcDbXrecord
280
     1
  1
fini
  1
*fini*
  1
*
  1
*
 70
     0
  1
*
  1
*
  0
XRECORD
  5
121
102
{ACAD_REACTORS
330
45
102
}
330
45
100
AcDbXrecord
280
     1
  1
finish
  1
n-*
  1
*
  1
*
 70
     0
  1
*
  1
*
  0
XRECORD
  5
122
102
{ACAD_REACTORS
330
45
102
}
330
45
100
AcDbXrecord
280
     1
  1
FIRE
  1
*FIRE*
  1
*
  1
*
 70
     0
  1
*
  1
*
  0
XRECORD
  5
123
102
{ACAD_REACTORS
330
45
102
}
330
45
100
AcDbXrecord
280
     1
  1
fixture
  1
f-*
  1
*
  1
*
 70
     0
  1
*
  1
*
  0
XRECORD
  5
124
102
{ACAD_REACTORS
330
45
102
}
330
45
100
AcDbXrecord
280
     1
  1
fl
  1
*FL*
  1
*
  1
*
 70
     0
  1
*
  1
*
  0
XRECORD
  5
125
102
{ACAD_REACTORS
330
45
102
}
330
45
100
AcDbXrecord
280
     1
  1
Floor
  1
A-Flor*
  1
*
  1
*
 70
     0
  1
*
  1
*
  0
XRECORD
  5
126
102
{ACAD_REACTORS
330
45
102
}
330
45
100
AcDbXrecord
280
     1
  1
FLOOR PLAN
  1
A-FLR-*
  1
*
  1
*
 70
     0
  1
*
  1
*
  0
XRECORD
  5
127
102
{ACAD_REACTORS
330
45
102
}
330
45
100
AcDbXrecord
280
     1
  1
fr
  1
*
  1
*
  1
*
 70
     4
  1
*
  1
*
  0
XRECORD
  5
128
102
{ACAD_REACTORS
330
45
102
}
330
45
100
AcDbXrecord
280
     1
  1
freeze
  1
*
  1
*
  1
*
 70
     4
  1
*
  1
*
  0
XRECORD
  5
129
102
{ACAD_REACTORS
330
45
102
}
330
45
100
AcDbXrecord
280
     1
  1
FRZ
  1
*
  1
*
  1
*
 70
     4
  1
*
  1
*
  0
XRECORD
  5
12A
102
{ACAD_REACTORS
330
45
102
}
330
45
100
AcDbXrecord
280
     1
  1
Fugou
  1
*-Fugou*
  1
*
  1
*
 70
     0
  1
*
  1
*
  0
XRECORD
  5
12B
102
{ACAD_REACTORS
330
45
102
}
330
45
100
AcDbXrecord
280
     1
  1
FUGOU-TATEGU
  1
*FUGOU-TATEGU
  1
*
  1
*
 70
     0
  1
*
  1
*
  0
XRECORD
  5
12C
102
{ACAD_REACTORS
330
45
102
}
330
45
100
AcDbXrecord
280
     1
  1
FUKI
  1
*FUKI
  1
*
  1
*
 70
     0
  1
*
  1
*
  0
XRECORD
  5
12D
102
{ACAD_REACTORS
330
45
102
}
330
45
100
AcDbXrecord
280
     1
  1
FURN
  1
*F-*
  1
*
  1
*
 70
     0
  1
*
  1
*
  0
XRECORD
  5
12E
102
{ACAD_REACTORS
330
45
102
}
330
45
100
AcDbXrecord
280
     1
  1
FURNITURE
  1
*FN*
  1
*
  1
*
 70
     0
  1
*
  1
*
  0
XRECORD
  5
12F
102
{ACAD_REACTORS
330
45
102
}
330
45
100
AcDbXrecord
280
     1
  1
FUSE_00
  1
*
  1
*
  1
*
 70
     0
  1
*
  1
*
  0
XRECORD
  5
130
102
{ACAD_REACTORS
330
45
102
}
330
45
100
AcDbXrecord
280
     1
  1
G
  1
*-G*
  1
*
  1
*
 70
     0
  1
*
  1
*
  0
XRECORD
  5
131
102
{ACAD_REACTORS
330
45
102
}
330
45
100
AcDbXrecord
280
     1
  1
G(開口)を表示
  1
G*
  1
*
  1
*
 70
     0
  1
*
  1
*
  0
XRECORD
  5
132
102
{ACAD_REACTORS
330
45
102
}
330
45
100
AcDbXrecord
280
     1
  1
GAIKOU
  1
*
  1
*
  1
*
 70
     0
  1
*
  1
*
  0
XRECORD
  5
133
102
{ACAD_REACTORS
330
45
102
}
330
45
100
AcDbXrecord
280
     1
  1
gel
  1
*ILLUMI*
  1
*
  1
*
 70
     0
  1
*
  1
*
  0
XRECORD
  5
134
102
{ACAD_REACTORS
330
45
102
}
330
45
100
AcDbXrecord
280
     1
  1
gen
  1
g*,*$*
  1
*
  1
*
 70
     0
  1
*
  1
*
  0
XRECORD
  5
135
102
{ACAD_REACTORS
330
45
102
}
330
45
100
AcDbXrecord
280
     1
  1
gondora
  1
a-gondora*
  1
*
  1
*
 70
     0
  1
*
  1
*
  0
XRECORD
  5
136
102
{ACAD_REACTORS
330
45
102
}
330
45
100
AcDbXrecord
280
     1
  1
green
  1
*
  1
green
  1
*
 70
     0
  1
*
  1
*
  0
XRECORD
  5
137
102
{ACAD_REACTORS
330
45
102
}
330
45
100
AcDbXrecord
280
     1
  1
GRID
  1
G*
  1
*
  1
*
 70
     0
  1
*
  1
*
  0
XRECORD
  5
138
102
{ACAD_REACTORS
330
45
102
}
330
45
100
AcDbXrecord
280
     1
  1
gris
  1
*
  1
*
  1
*
 70
     0
  1
*
  1
*
  0
XRECORD
  5
139
102
{ACAD_REACTORS
330
45
102
}
330
45
100
AcDbXrecord
280
     1
  1
H
  1
00*,01*,02*,03*,05*,06*,1*,2*,3*,4*,5*,6*,8*,D*,
  1
*
  1
*
 70
     0
  1
*
  1
*
  0
XRECORD
  5
13A
102
{ACAD_REACTORS
330
45
102
}
330
45
100
AcDbXrecord
280
     1
  1
H-
  1
H-*
  1
*
  1
*
 70
     0
  1
*
  1
*
  0
XRECORD
  5
13B
102
{ACAD_REACTORS
330
45
102
}
330
45
100
AcDbXrecord
280
     1
  1
H-SIN
  1
*H-SIN
  1
*
  1
*
 70
     0
  1
*
  1
*
  0
XRECORD
  5
13C
102
{ACAD_REACTORS
330
45
102
}
330
45
100
AcDbXrecord
280
     1
  1
H(見掛)を表示
  1
H*
  1
*
  1
*
 70
     0
  1
*
  1
*
  0
XRECORD
  5
13D
102
{ACAD_REACTORS
330
45
102
}
330
45
100
AcDbXrecord
280
     1
  1
HA
  1
*HA*
  1
*
  1
*
 70
     0
  1
*
  1
*
  0
XRECORD
  5
13E
102
{ACAD_REACTORS
330
45
102
}
330
45
100
AcDbXrecord
280
     1
  1
haikin
  1
2-*
  1
*
  1
*
 70
     0
  1
*
  1
*
  0
XRECORD
  5
13F
102
{ACAD_REACTORS
330
45
102
}
330
45
100
AcDbXrecord
280
     1
  1
HAISEN
  1
*1,HAISEN
  1
*
  1
*
 70
     0
  1
*
  1
*
  0
XRECORD
  5
140
102
{ACAD_REACTORS
330
45
102
}
330
45
100
AcDbXrecord
280
     1
  1
HARI
  1
*HARI
  1
*
  1
*
 70
     0
  1
*
  1
*
  0
XRECORD
  5
141
102
{ACAD_REACTORS
330
45
102
}
330
45
100
AcDbXrecord
280
     1
  1
hasira
  1
*hasira*
  1
*
  1
*
 70
     0
  1
*
  1
*
  0
XRECORD
  5
142
102
{ACAD_REACTORS
330
45
102
}
330
45
100
AcDbXrecord
280
     1
  1
HATCH
  1
*HATCH*
  1
*
  1
*
 70
     0
  1
*
  1
*
  0
XRECORD
  5
143
102
{ACAD_REACTORS
330
45
102
}
330
45
100
AcDbXrecord
280
     1
  1
HCP
  1
*HCP*
  1
*
  1
*
 70
     0
  1
*
  1
*
  0
XRECORD
  5
144
102
{ACAD_REACTORS
330
45
102
}
330
45
100
AcDbXrecord
280
     1
  1
HEISHO
  1
4MAJ
  1
*
  1
*
 70
     0
  1
*
  1
*
  0
XRECORD
  5
145
102
{ACAD_REACTORS
330
45
102
}
330
45
100
AcDbXrecord
280
     1
  1
HEISHO2
  1
4MAJ,3CWD,3TAT
  1
*
  1
*
 70
     0
  1
*
  1
*
  0
XRECORD
  5
146
102
{ACAD_REACTORS
330
45
102
}
330
45
100
AcDbXrecord
280
     1
  1
HIDDEN
  1
*
  1
*
  1
HIDDEN
 70
     0
  1
*
  1
*
  0
XRECORD
  5
147
102
{ACAD_REACTORS
330
45
102
}
330
45
100
AcDbXrecord
280
     1
  1
HOJO
  1
*HOJO
  1
*
  1
*
 70
     0
  1
*
  1
*
  0
XRECORD
  5
148
102
{ACAD_REACTORS
330
45
102
}
330
45
100
AcDbXrecord
280
     1
  1
hollywood
  1
*
  1
*
  1
*
 70
    12
  1
*
  1
*
  0
XRECORD
  5
149
102
{ACAD_REACTORS
330
45
102
}
330
45
100
AcDbXrecord
280
     1
  1
HOTEL
  1
*HOT*
  1
*
  1
*
 70
     0
  1
*
  1
*
  0
XRECORD
  5
14A
102
{ACAD_REACTORS
330
45
102
}
330
45
100
AcDbXrecord
280
     1
  1
huse
  1
0,defpoints
  1
*
  1
*
 70
     0
  1
*
  1
*
  0
XRECORD
  5
14B
102
{ACAD_REACTORS
330
45
102
}
330
45
100
AcDbXrecord
280
     1
  1
HYOKI
  1
*HYOKI
  1
*
  1
*
 70
     0
  1
*
  1
*
  0
XRECORD
  5
14C
102
{ACAD_REACTORS
330
45
102
}
330
45
100
AcDbXrecord
280
     1
  1
HYOUKI
  1
*
  1
*
  1
*
 70
     0
  1
*
  1
*
  0
XRECORD
  5
14D
102
{ACAD_REACTORS
330
45
102
}
330
45
100
AcDbXrecord
280
     1
  1
i
  1
*
  1
*
  1
*
 70
     0
  1
*
  1
*
  0
XRECORD
  5
14E
102
{ACAD_REACTORS
330
45
102
}
330
45
100
AcDbXrecord
280
     1
  1
I(二次部材系))を表示
  1
I*
  1
*
  1
*
 70
     0
  1
*
  1
*
  0
XRECORD
  5
14F
102
{ACAD_REACTORS
330
45
102
}
330
45
100
AcDbXrecord
280
     1
  1
I2
  1
*I2CL*
  1
*
  1
*
 70
     0
  1
*
  1
*
  0
XRECORD
  5
150
102
{ACAD_REACTORS
330
45
102
}
330
45
100
AcDbXrecord
280
     1
  1
i2cl
  1
*i2c?*
  1
*
  1
*
 70
     0
  1
*
  1
*
  0
XRECORD
  5
151
102
{ACAD_REACTORS
330
45
102
}
330
45
100
AcDbXrecord
280
     1
  1
i5
  1
*i5*
  1
*
  1
*
 70
     0
  1
*
  1
*
  0
XRECORD
  5
152
102
{ACAD_REACTORS
330
45
102
}
330
45
100
AcDbXrecord
280
     1
  1
i9
  1
*i9*
  1
*
  1
*
 70
     0
  1
*
  1
*
  0
XRECORD
  5
153
102
{ACAD_REACTORS
330
45
102
}
330
45
100
AcDbXrecord
280
     1
  1
in
  1
*
  1
*
  1
*
 70
     4
  1
*
  1
*
  0
XRECORD
  5
154
102
{ACAD_REACTORS
330
45
102
}
330
45
100
AcDbXrecord
280
     1
  1
INSERT図
  1
*
  1
*
  1
*
 70
    12
  1
*
  1
*
  0
XRECORD
  5
155
102
{ACAD_REACTORS
330
45
102
}
330
45
100
AcDbXrecord
280
     1
  1
ISSUE
  1
*-ISSUE1-*
  1
*
  1
*
 70
     0
  1
*
  1
*
  0
XRECORD
  5
156
102
{ACAD_REACTORS
330
45
102
}
330
45
100
AcDbXrecord
280
     1
  1
J
  1
*J*
  1
*
  1
*
 70
     0
  1
*
  1
*
  0
XRECORD
  5
157
102
{ACAD_REACTORS
330
45
102
}
330
45
100
AcDbXrecord
280
     1
  1
K
  1
K*
  1
*
  1
*
 70
     0
  1
*
  1
*
  0
XRECORD
  5
158
102
{ACAD_REACTORS
330
45
102
}
330
45
100
AcDbXrecord
280
     1
  1
KABE
  1
*KABE
  1
*
  1
*
 70
     0
  1
*
  1
*
  0
XRECORD
  5
159
102
{ACAD_REACTORS
330
45
102
}
330
45
100
AcDbXrecord
280
     1
  1
KABESHIN
  1
*A12
  1
*
  1
*
 70
     0
  1
*
  1
*
  0
XRECORD
  5
15A
102
{ACAD_REACTORS
330
45
102
}
330
45
100
AcDbXrecord
280
     1
  1
KAGU
  1
*KAGU*
  1
*
  1
*
 70
     0
  1
*
  1
*
  0
XRECORD
  5
15B
102
{ACAD_REACTORS
330
45
102
}
330
45
100
AcDbXrecord
280
     1
  1
key
  1
keyplan
  1
*
  1
*
 70
     0
  1
*
  1
*
  0
XRECORD
  5
15C
102
{ACAD_REACTORS
330
45
102
}
330
45
100
AcDbXrecord
280
     1
  1
KI
  1
KI*
  1
*
  1
*
 70
     0
  1
*
  1
*
  0
XRECORD
  5
15D
102
{ACAD_REACTORS
330
45
102
}
330
45
100
AcDbXrecord
280
     1
  1
KIGO
  1
*KIGO*
  1
*
  1
*
 70
     0
  1
*
  1
*
  0
XRECORD
  5
15E
102
{ACAD_REACTORS
330
45
102
}
330
45
100
AcDbXrecord
280
     1
  1
KIJUN
  1
*KIJUN
  1
*
  1
*
 70
     0
  1
*
  1
*
  0
XRECORD
  5
15F
102
{ACAD_REACTORS
330
45
102
}
330
45
100
AcDbXrecord
280
     1
  1
kiso
  1
f1*
  1
*
  1
*
 70
     0
  1
*
  1
*
  0
XRECORD
  5
160
102
{ACAD_REACTORS
330
45
102
}
330
45
100
AcDbXrecord
280
     1
  1
KSIN
  1
*2KSIN
  1
21
  1
*
 70
     0
  1
*
  1
*
  0
XRECORD
  5
161
102
{ACAD_REACTORS
330
45
102
}
330
45
100
AcDbXrecord
280
     1
  1
kui
  1
*
  1
*
  1
*
 70
     4
  1
*
  1
*
  0
XRECORD
  5
162
102
{ACAD_REACTORS
330
45
102
}
330
45
100
AcDbXrecord
280
     1
  1
KUTAI
  1
*
  1
*
  1
*
 70
     0
  1
*
  1
*
  0
XRECORD
  5
163
102
{ACAD_REACTORS
330
45
102
}
330
45
100
AcDbXrecord
280
     1
  1
L
  1
L*
  1
*
  1
*
 70
     0
  1
*
  1
*
  0
XRECORD
  5
164
102
{ACAD_REACTORS
330
45
102
}
330
45
100
AcDbXrecord
280
     1
  1
LEGEND
  1
*-C-*
  1
*
  1
*
 70
     0
  1
*
  1
*
  0
XRECORD
  5
165
102
{ACAD_REACTORS
330
45
102
}
330
45
100
AcDbXrecord
280
     1
  1
LGS
  1
*LGS*
  1
*
  1
*
 70
     0
  1
*
  1
*
  0
XRECORD
  5
166
102
{ACAD_REACTORS
330
45
102
}
330
45
100
AcDbXrecord
280
     1
  1
light
  1
*light*
  1
*
  1
*
 70
     0
  1
*
  1
*
  0
XRECORD
  5
167
102
{ACAD_REACTORS
330
45
102
}
330
45
100
AcDbXrecord
280
     1
  1
LIST
  1
*LIST*
  1
*
  1
*
 70
     0
  1
*
  1
*
  0
XRECORD
  5
168
102
{ACAD_REACTORS
330
45
102
}
330
45
100
AcDbXrecord
280
     1
  1
lixo
  1
*
  1
*
  1
*
 70
  3072
  1
*
  1
*
  0
XRECORD
  5
169
102
{ACAD_REACTORS
330
45
102
}
330
45
100
AcDbXrecord
280
     1
  1
LOCK
  1
*
  1
*
  1
*
 70
   256
  1
*
  1
*
  0
XRECORD
  5
16A
102
{ACAD_REACTORS
330
45
102
}
330
45
100
AcDbXrecord
280
     1
  1
LTA
  1
*
  1
*
  1
*
 70
   768
  1
*
  1
*
  0
XRECORD
  5
16B
102
{ACAD_REACTORS
330
45
102
}
330
45
100
AcDbXrecord
280
     1
  1
Ｌ建具
  1
L*tategu*
  1
*
  1
*
 70
     0
  1
*
  1
*
  0
XRECORD
  5
16C
102
{ACAD_REACTORS
330
45
102
}
330
45
100
AcDbXrecord
280
     1
  1
M
  1
M*
  1
*
  1
*
 70
     0
  1
*
  1
*
  0
XRECORD
  5
16D
102
{ACAD_REACTORS
330
45
102
}
330
45
100
AcDbXrecord
280
     1
  1
MA
  1
MA*
  1
*
  1
*
 70
     0
  1
*
  1
*
  0
XRECORD
  5
16E
102
{ACAD_REACTORS
330
45
102
}
330
45
100
AcDbXrecord
280
     1
  1
MACONNERIE
  1
*
  1
*
  1
*
 70
     0
  1
*
  1
*
  0
XRECORD
  5
16F
102
{ACAD_REACTORS
330
45
102
}
330
45
100
AcDbXrecord
280
     1
  1
magenta
  1
*
  1
magenta
  1
*
 70
     0
  1
*
  1
*
  0
XRECORD
  5
170
102
{ACAD_REACTORS
330
45
102
}
330
45
100
AcDbXrecord
280
     1
  1
magenta-bleu
  1
*
  1
magenta,bleu
  1
*
 70
     0
  1
*
  1
*
  0
XRECORD
  5
171
102
{ACAD_REACTORS
330
45
102
}
330
45
100
AcDbXrecord
280
     1
  1
maji
  1
*A12
  1
*
  1
*
 70
     0
  1
*
  1
*
  0
XRECORD
  5
172
102
{ACAD_REACTORS
330
45
102
}
330
45
100
AcDbXrecord
280
     1
  1
MAJIKIRI
  1
*MAJIKIRI
  1
*
  1
*
 70
     0
  1
*
  1
*
  0
XRECORD
  5
173
102
{ACAD_REACTORS
330
45
102
}
330
45
100
AcDbXrecord
280
     1
  1
marco
  1
marco*
  1
*
  1
*
 70
     0
  1
*
  1
*
  0
XRECORD
  5
174
102
{ACAD_REACTORS
330
45
102
}
330
45
100
AcDbXrecord
280
     1
  1
MB
  1
*MB
  1
*
  1
*
 70
     0
  1
*
  1
*
  0
XRECORD
  5
175
102
{ACAD_REACTORS
330
45
102
}
330
45
100
AcDbXrecord
280
     1
  1
meji
  1
*MEJI
  1
*
  1
*
 70
     0
  1
*
  1
*
  0
XRECORD
  5
176
102
{ACAD_REACTORS
330
45
102
}
330
45
100
AcDbXrecord
280
     1
  1
merceologico
  1
mq*
  1
*
  1
*
 70
     0
  1
*
  1
*
  0
XRECORD
  5
177
102
{ACAD_REACTORS
330
45
102
}
330
45
100
AcDbXrecord
280
     1
  1
MILL
  1
*MILL*
  1
*
  1
*
 70
     0
  1
*
  1
*
  0
XRECORD
  5
178
102
{ACAD_REACTORS
330
45
102
}
330
45
100
AcDbXrecord
280
     1
  1
MILLWORK
  1
*mILL*
  1
*
  1
*
 70
     0
  1
*
  1
*
  0
XRECORD
  5
179
102
{ACAD_REACTORS
330
45
102
}
330
45
100
AcDbXrecord
280
     1
  1
miwa
  1
*
  1
*
  1
*
 70
     0
  1
*
  1
*
  0
XRECORD
  5
17A
102
{ACAD_REACTORS
330
45
102
}
330
45
100
AcDbXrecord
280
     1
  1
MOJI
  1
*MOJI
  1
*
  1
*
 70
     0
  1
*
  1
*
  0
XRECORD
  5
17B
102
{ACAD_REACTORS
330
45
102
}
330
45
100
AcDbXrecord
280
     1
  1
MOJI100
  1
*5MOJI100
  1
3
  1
*
 70
     0
  1
*
  1
*
  0
XRECORD
  5
17C
102
{ACAD_REACTORS
330
45
102
}
330
45
100
AcDbXrecord
280
     1
  1
N
  1
*N*
  1
*
  1
*
 70
     0
  1
*
  1
*
  0
XRECORD
  5
17D
102
{ACAD_REACTORS
330
45
102
}
330
45
100
AcDbXrecord
280
     1
  1
N-
  1
N-*
  1
*
  1
*
 70
     0
  1
*
  1
*
  0
XRECORD
  5
17E
102
{ACAD_REACTORS
330
45
102
}
330
45
100
AcDbXrecord
280
     1
  1
NAM
  1
*NAM*
  1
*
  1
*
 70
     0
  1
*
  1
*
  0
XRECORD
  5
17F
102
{ACAD_REACTORS
330
45
102
}
330
45
100
AcDbXrecord
280
     1
  1
NEW
  1
*NEW*
  1
*
  1
*
 70
     0
  1
*
  1
*
  0
XRECORD
  5
180
102
{ACAD_REACTORS
330
45
102
}
330
45
100
AcDbXrecord
280
     1
  1
NHK
  1
N*
  1
*
  1
*
 70
     0
  1
*
  1
*
  0
XRECORD
  5
181
102
{ACAD_REACTORS
330
45
102
}
330
45
100
AcDbXrecord
280
     1
  1
niimi
  1
*
  1
*
  1
*
 70
     0
  1
*
  1
*
  0
XRECORD
  5
182
102
{ACAD_REACTORS
330
45
102
}
330
45
100
AcDbXrecord
280
     1
  1
no xref
  1
~*|*
  1
*
  1
*
 70
     0
  1
*
  1
*
  0
XRECORD
  5
183
102
{ACAD_REACTORS
330
45
102
}
330
45
100
AcDbXrecord
280
     1
  1
note
  1
tca-6f|*note*
  1
*
  1
*
 70
     0
  1
*
  1
*
  0
XRECORD
  5
184
102
{ACAD_REACTORS
330
45
102
}
330
45
100
AcDbXrecord
280
     1
  1
NUM
  1
*NUM*
  1
*
  1
*
 70
     0
  1
*
  1
*
  0
XRECORD
  5
185
102
{ACAD_REACTORS
330
45
102
}
330
45
100
AcDbXrecord
280
     1
  1
NUMB
  1
*NUM*
  1
*
  1
*
 70
     0
  1
*
  1
*
  0
XRECORD
  5
186
102
{ACAD_REACTORS
330
45
102
}
330
45
100
AcDbXrecord
280
     1
  1
O
  1
*O*
  1
*
  1
*
 70
     0
  1
*
  1
*
  0
XRECORD
  5
187
102
{ACAD_REACTORS
330
45
102
}
330
45
100
AcDbXrecord
280
     1
  1
OF
  1
*
  1
*
  1
*
 70
     3
  1
*
  1
*
  0
XRECORD
  5
188
102
{ACAD_REACTORS
330
45
102
}
330
45
100
AcDbXrecord
280
     1
  1
OFF
  1
*
  1
*
  1
*
 70
     3
  1
*
  1
*
  0
XRECORD
  5
189
102
{ACAD_REACTORS
330
45
102
}
330
45
100
AcDbXrecord
280
     1
  1
on
  1
*
  1
*
  1
*
 70
    13
  1
*
  1
*
  0
XRECORD
  5
18A
102
{ACAD_REACTORS
330
45
102
}
330
45
100
AcDbXrecord
280
     1
  1
option 1
  1
1*
  1
*
  1
*
 70
     0
  1
*
  1
*
  0
XRECORD
  5
18B
102
{ACAD_REACTORS
330
45
102
}
330
45
100
AcDbXrecord
280
     1
  1
option 2
  1
2*
  1
*
  1
*
 70
     0
  1
*
  1
*
  0
XRECORD
  5
18C
102
{ACAD_REACTORS
330
45
102
}
330
45
100
AcDbXrecord
280
     1
  1
OUTLINE
  1
T_*|OUTLINE
  1
*
  1
*
 70
     0
  1
*
  1
*
  0
XRECORD
  5
18D
102
{ACAD_REACTORS
330
45
102
}
330
45
100
AcDbXrecord
280
     1
  1
P
  1
*-P*
  1
*
  1
*
 70
     0
  1
*
  1
*
  0
XRECORD
  5
18E
102
{ACAD_REACTORS
330
45
102
}
330
45
100
AcDbXrecord
280
     1
  1
pa
  1
*pa*
  1
*
  1
*
 70
     0
  1
*
  1
*
  0
XRECORD
  5
18F
102
{ACAD_REACTORS
330
45
102
}
330
45
100
AcDbXrecord
280
     1
  1
PALFOND
  1
*
  1
*
  1
*
 70
    13
  1
*
  1
*
  0
XRECORD
  5
190
102
{ACAD_REACTORS
330
45
102
}
330
45
100
AcDbXrecord
280
     1
  1
PAT
  1
*PAT*
  1
*
  1
*
 70
     0
  1
*
  1
*
  0
XRECORD
  5
191
102
{ACAD_REACTORS
330
45
102
}
330
45
100
AcDbXrecord
280
     1
  1
PC
  1
PC*
  1
*
  1
*
 70
     0
  1
*
  1
*
  0
XRECORD
  5
192
102
{ACAD_REACTORS
330
45
102
}
330
45
100
AcDbXrecord
280
     1
  1
PISO
  1
*PISO
  1
*
  1
*
 70
     0
  1
*
  1
*
  0
XRECORD
  5
193
102
{ACAD_REACTORS
330
45
102
}
330
45
100
AcDbXrecord
280
     1
  1
PLAN
  1
A*,B*,SITE*
  1
*
  1
*
 70
     0
  1
*
  1
*
  0
XRECORD
  5
194
102
{ACAD_REACTORS
330
45
102
}
330
45
100
AcDbXrecord
280
     1
  1
PLMB
  1
*PLMB*
  1
*
  1
*
 70
     0
  1
*
  1
*
  0
XRECORD
  5
195
102
{ACAD_REACTORS
330
45
102
}
330
45
100
AcDbXrecord
280
     1
  1
plot
  1
*
  1
*
  1
*
 70
     1
  1
*
  1
*
  0
XRECORD
  5
196
102
{ACAD_REACTORS
330
45
102
}
330
45
100
AcDbXrecord
280
     1
  1
PLUMB
  1
*PLUMB*
  1
*
  1
*
 70
     0
  1
*
  1
*
  0
XRECORD
  5
197
102
{ACAD_REACTORS
330
45
102
}
330
45
100
AcDbXrecord
280
     1
  1
PNL
  1
*PNL*
  1
*
  1
*
 70
     0
  1
*
  1
*
  0
XRECORD
  5
198
102
{ACAD_REACTORS
330
45
102
}
330
45
100
AcDbXrecord
280
     1
  1
power
  1
p-*
  1
*
  1
*
 70
     0
  1
*
  1
*
  0
XRECORD
  5
199
102
{ACAD_REACTORS
330
45
102
}
330
45
100
AcDbXrecord
280
     1
  1
PRT
  1
*PRT*
  1
*
  1
*
 70
     0
  1
*
  1
*
  0
XRECORD
  5
19A
102
{ACAD_REACTORS
330
45
102
}
330
45
100
AcDbXrecord
280
     1
  1
q
  1
*
  1
*
  1
*
 70
     4
  1
*
  1
*
  0
XRECORD
  5
19B
102
{ACAD_REACTORS
330
45
102
}
330
45
100
AcDbXrecord
280
     1
  1
R
  1
R*
  1
*
  1
*
 70
     0
  1
*
  1
*
  0
XRECORD
  5
19C
102
{ACAD_REACTORS
330
45
102
}
330
45
100
AcDbXrecord
280
     1
  1
rack
  1
*rack*
  1
*
  1
*
 70
     0
  1
*
  1
*
  0
XRECORD
  5
19D
102
{ACAD_REACTORS
330
45
102
}
330
45
100
AcDbXrecord
280
     1
  1
RC
  1
*RC
  1
*
  1
*
 70
     0
  1
*
  1
*
  0
XRECORD
  5
19E
102
{ACAD_REACTORS
330
45
102
}
330
45
100
AcDbXrecord
280
     1
  1
RCP
  1
A*,C*
  1
*
  1
*
 70
     0
  1
*
  1
*
  0
XRECORD
  5
19F
102
{ACAD_REACTORS
330
45
102
}
330
45
100
AcDbXrecord
280
     1
  1
rm
  1
*r*
  1
*
  1
*
 70
     0
  1
*
  1
*
  0
XRECORD
  5
1A0
102
{ACAD_REACTORS
330
45
102
}
330
45
100
AcDbXrecord
280
     1
  1
RMTAGS
  1
R*
  1
*
  1
*
 70
     0
  1
*
  1
*
  0
XRECORD
  5
1A1
102
{ACAD_REACTORS
330
45
102
}
330
45
100
AcDbXrecord
280
     1
  1
RNUM
  1
*NUM*
  1
*
  1
*
 70
     0
  1
*
  1
*
  0
XRECORD
  5
1A2
102
{ACAD_REACTORS
330
45
102
}
330
45
100
AcDbXrecord
280
     1
  1
ROOM
  1
*RM*
  1
*
  1
*
 70
     0
  1
*
  1
*
  0
XRECORD
  5
1A3
102
{ACAD_REACTORS
330
45
102
}
330
45
100
AcDbXrecord
280
     1
  1
roomno
  1
*num*
  1
*
  1
*
 70
     0
  1
*
  1
*
  0
XRECORD
  5
1A4
102
{ACAD_REACTORS
330
45
102
}
330
45
100
AcDbXrecord
280
     1
  1
rouge
  1
*
  1
1
  1
*
 70
     1
  1
*
  1
*
  0
XRECORD
  5
1A5
102
{ACAD_REACTORS
330
45
102
}
330
45
100
AcDbXrecord
280
     1
  1
rtkl
  1
*rtkl*
  1
*
  1
*
 70
     0
  1
*
  1
*
  0
XRECORD
  5
1A6
102
{ACAD_REACTORS
330
45
102
}
330
45
100
AcDbXrecord
280
     1
  1
S
  1
0,05*,11*,12*,13*,14*,20*,21*,22*,55*,56*,
  1
*
  1
*
 70
     0
  1
*
  1
*
  0
XRECORD
  5
1A7
102
{ACAD_REACTORS
330
45
102
}
330
45
100
AcDbXrecord
280
     1
  1
saciencewold
  1
*
  1
*
  1
*
 70
     0
  1
*
  1
*
  0
XRECORD
  5
1A8
102
{ACAD_REACTORS
330
45
102
}
330
45
100
AcDbXrecord
280
     1
  1
SETUBI
  1
*SETUBI
  1
*
  1
*
 70
     0
  1
*
  1
*
  0
XRECORD
  5
1A9
102
{ACAD_REACTORS
330
45
102
}
330
45
100
AcDbXrecord
280
     1
  1
SHITU
  1
*SHITUMEI*
  1
*
  1
*
 70
     0
  1
*
  1
*
  0
XRECORD
  5
1AA
102
{ACAD_REACTORS
330
45
102
}
330
45
100
AcDbXrecord
280
     1
  1
SHITUMEI
  1
*SHITUMEI2
  1
*
  1
*
 70
     0
  1
*
  1
*
  0
XRECORD
  5
1AB
102
{ACAD_REACTORS
330
45
102
}
330
45
100
AcDbXrecord
280
     1
  1
SIAG
  1
*3SIAG
  1
*
  1
*
 70
     0
  1
*
  1
*
  0
XRECORD
  5
1AC
102
{ACAD_REACTORS
330
45
102
}
330
45
100
AcDbXrecord
280
     1
  1
SIAG-N
  1
*3SIAG-N
  1
7
  1
*
 70
     0
  1
*
  1
*
  0
XRECORD
  5
1AD
102
{ACAD_REACTORS
330
45
102
}
330
45
100
AcDbXrecord
280
     1
  1
SIAG3
  1
*3SIAG3
  1
3
  1
*
 70
     0
  1
*
  1
*
  0
XRECORD
  5
1AE
102
{ACAD_REACTORS
330
45
102
}
330
45
100
AcDbXrecord
280
     1
  1
sin
  1
*SIN*
  1
*
  1
*
 70
     0
  1
*
  1
*
  0
XRECORD
  5
1AF
102
{ACAD_REACTORS
330
45
102
}
330
45
100
AcDbXrecord
280
     1
  1
Sinm
  1
*-Sinm*
  1
*
  1
*
 70
     0
  1
*
  1
*
  0
XRECORD
  5
1B0
102
{ACAD_REACTORS
330
45
102
}
330
45
100
AcDbXrecord
280
     1
  1
SITA
  1
*3SITA
  1
*
  1
*
 70
     0
  1
*
  1
*
  0
XRECORD
  5
1B1
102
{ACAD_REACTORS
330
45
102
}
330
45
100
AcDbXrecord
280
     1
  1
siyah
  1
*
  1
*
  1
*
 70
     4
  1
*
  1
siyah
  0
XRECORD
  5
1B2
102
{ACAD_REACTORS
330
45
102
}
330
45
100
AcDbXrecord
280
     1
  1
SS
  1
*SS*
  1
*
  1
*
 70
     0
  1
*
  1
*
  0
XRECORD
  5
1B3
102
{ACAD_REACTORS
330
45
102
}
330
45
100
AcDbXrecord
280
     1
  1
ST
  1
*ST*
  1
*
  1
*
 70
     0
  1
*
  1
*
  0
XRECORD
  5
1B4
102
{ACAD_REACTORS
330
45
102
}
330
45
100
AcDbXrecord
280
     1
  1
STA
  1
STA*
  1
*
  1
*
 70
     0
  1
*
  1
*
  0
XRECORD
  5
1B5
102
{ACAD_REACTORS
330
45
102
}
330
45
100
AcDbXrecord
280
     1
  1
stairs
  1
*sta*
  1
*
  1
*
 70
     0
  1
*
  1
*
  0
XRECORD
  5
1B6
102
{ACAD_REACTORS
330
45
102
}
330
45
100
AcDbXrecord
280
     1
  1
SUGA5
  1
*4SUGA5
  1
5
  1
*
 70
     0
  1
*
  1
*
  0
XRECORD
  5
1B7
102
{ACAD_REACTORS
330
45
102
}
330
45
100
AcDbXrecord
280
     1
  1
SUNP
  1
*5SUNP100
  1
1
  1
*
 70
     0
  1
*
  1
*
  0
XRECORD
  5
1B8
102
{ACAD_REACTORS
330
45
102
}
330
45
100
AcDbXrecord
280
     1
  1
SUNP100
  1
*5SUNP100
  1
*
  1
*
 70
     0
  1
*
  1
*
  0
XRECORD
  5
1B9
102
{ACAD_REACTORS
330
45
102
}
330
45
100
AcDbXrecord
280
     1
  1
T
  1
T*
  1
*
  1
*
 70
     0
  1
*
  1
*
  0
XRECORD
  5
1BA
102
{ACAD_REACTORS
330
45
102
}
330
45
100
AcDbXrecord
280
     1
  1
TAKASA
  1
*
  1
2
  1
*
 70
     0
  1
*
  1
*
  0
XRECORD
  5
1BB
102
{ACAD_REACTORS
330
45
102
}
330
45
100
AcDbXrecord
280
     1
  1
TATE161
  1
*4TATE161
  1
161
  1
*
 70
     0
  1
*
  1
*
  0
XRECORD
  5
1BC
102
{ACAD_REACTORS
330
45
102
}
330
45
100
AcDbXrecord
280
     1
  1
TATEGU
  1
*TATEGU
  1
*
  1
*
 70
     0
  1
*
  1
*
  0
XRECORD
  5
1BD
102
{ACAD_REACTORS
330
45
102
}
330
45
100
AcDbXrecord
280
     1
  1
ten
  1
*ten*
  1
*
  1
*
 70
     0
  1
*
  1
*
  0
XRECORD
  5
1BE
102
{ACAD_REACTORS
330
45
102
}
330
45
100
AcDbXrecord
280
     1
  1
TENJYOU
  1
C-*
  1
*
  1
*
 70
     0
  1
*
  1
*
  0
XRECORD
  5
1BF
102
{ACAD_REACTORS
330
45
102
}
330
45
100
AcDbXrecord
280
     1
  1
TENJYOUNAI
  1
CI-*
  1
*
  1
*
 70
     0
  1
*
  1
*
  0
XRECORD
  5
1C0
102
{ACAD_REACTORS
330
45
102
}
330
45
100
AcDbXrecord
280
     1
  1
test
  1
keyplan
  1
*
  1
*
 70
     0
  1
*
  1
*
  0
XRECORD
  5
1C1
102
{ACAD_REACTORS
330
45
102
}
330
45
100
AcDbXrecord
280
     1
  1
text
  1
*text*
  1
*
  1
*
 70
     0
  1
*
  1
*
  0
XRECORD
  5
1C2
102
{ACAD_REACTORS
330
45
102
}
330
45
100
AcDbXrecord
280
     1
  1
thaw
  1
*
  1
*
  1
*
 70
    12
  1
*
  1
*
  0
XRECORD
  5
1C3
102
{ACAD_REACTORS
330
45
102
}
330
45
100
AcDbXrecord
280
     1
  1
TITL
  1
*8TITL
  1
4
  1
*
 70
     0
  1
*
  1
*
  0
XRECORD
  5
1C4
102
{ACAD_REACTORS
330
45
102
}
330
45
100
AcDbXrecord
280
     1
  1
tnjyou
  1
c-*
  1
*
  1
*
 70
     0
  1
*
  1
*
  0
XRECORD
  5
1C5
102
{ACAD_REACTORS
330
45
102
}
330
45
100
AcDbXrecord
280
     1
  1
tori
  1
*A11
  1
*
  1
*
 70
     0
  1
*
  1
*
  0
XRECORD
  5
1C6
102
{ACAD_REACTORS
330
45
102
}
330
45
100
AcDbXrecord
280
     1
  1
TORISHIN
  1
*A11
  1
*
  1
*
 70
     0
  1
*
  1
*
  0
XRECORD
  5
1C7
102
{ACAD_REACTORS
330
45
102
}
330
45
100
AcDbXrecord
280
     1
  1
tr
  1
*tr*
  1
*
  1
*
 70
     0
  1
*
  1
*
  0
XRECORD
  5
1C8
102
{ACAD_REACTORS
330
45
102
}
330
45
100
AcDbXrecord
280
     1
  1
TSIN
  1
*2TSIN
  1
*
  1
*
 70
     0
  1
*
  1
*
  0
XRECORD
  5
1C9
102
{ACAD_REACTORS
330
45
102
}
330
45
100
AcDbXrecord
280
     1
  1
TXT
  1
*TX*
  1
*
  1
*
 70
     0
  1
*
  1
*
  0
XRECORD
  5
1CA
102
{ACAD_REACTORS
330
45
102
}
330
45
100
AcDbXrecord
280
     1
  1
UNFREEZ
  1
*
  1
*
  1
*
 70
    12
  1
*
  1
*
  0
XRECORD
  5
1CB
102
{ACAD_REACTORS
330
45
102
}
330
45
100
AcDbXrecord
280
     1
  1
UNROCK
  1
*
  1
*
  1
*
 70
   768
  1
*
  1
*
  0
XRECORD
  5
1CC
102
{ACAD_REACTORS
330
45
102
}
330
45
100
AcDbXrecord
280
     1
  1
wada
  1
*
  1
*
  1
*
 70
     0
  1
*
  1
*
  0
XRECORD
  5
1CD
102
{ACAD_REACTORS
330
45
102
}
330
45
100
AcDbXrecord
280
     1
  1
waku
  1
waku
  1
*
  1
*
 70
     0
  1
*
  1
*
  0
XRECORD
  5
1CE
102
{ACAD_REACTORS
330
45
102
}
330
45
100
AcDbXrecord
280
     1
  1
X
  1
*$*$*
  1
*
  1
*
 70
     0
  1
*
  1
*
  0
XRECORD
  5
1CF
102
{ACAD_REACTORS
330
45
102
}
330
45
100
AcDbXrecord
280
     1
  1
X(敷地)を表示
  1
X*
  1
*
  1
*
 70
     0
  1
*
  1
*
  0
XRECORD
  5
1D0
102
{ACAD_REACTORS
330
45
102
}
330
45
100
AcDbXrecord
280
     1
  1
xref
  1
ground*
  1
*
  1
*
 70
     0
  1
*
  1
*
  0
XRECORD
  5
1D1
102
{ACAD_REACTORS
330
45
102
}
330
45
100
AcDbXrecord
280
     1
  1
YAJI
  1
*YAJI*
  1
*
  1
*
 70
     0
  1
*
  1
*
  0
XRECORD
  5
1D2
102
{ACAD_REACTORS
330
45
102
}
330
45
100
AcDbXrecord
280
     1
  1
yellow
  1
*
  1
yellow
  1
*
 70
     0
  1
*
  1
*
  0
XRECORD
  5
1D3
102
{ACAD_REACTORS
330
45
102
}
330
45
100
AcDbXrecord
280
     1
  1
YUKA
  1
F-*
  1
*
  1
*
 70
     0
  1
*
  1
*
  0
XRECORD
  5
1D4
102
{ACAD_REACTORS
330
45
102
}
330
45
100
AcDbXrecord
280
     1
  1
yその他
  1
y*
  1
*
  1
*
 70
     0
  1
*
  1
*
  0
XRECORD
  5
1D5
102
{ACAD_REACTORS
330
45
102
}
330
45
100
AcDbXrecord
280
     1
  1
Z
  1
Z*
  1
*
  1
*
 70
     0
  1
*
  1
*
  0
XRECORD
  5
1D6
102
{ACAD_REACTORS
330
45
102
}
330
45
100
AcDbXrecord
280
     1
  1
ZATU
  1
*ZATU
  1
*
  1
*
 70
     0
  1
*
  1
*
  0
XRECORD
  5
1D7
102
{ACAD_REACTORS
330
45
102
}
330
45
100
AcDbXrecord
280
     1
  1
z図枠
  1
z*
  1
*
  1
*
 70
     0
  1
*
  1
*
  0
XRECORD
  5
1D8
102
{ACAD_REACTORS
330
45
102
}
330
45
100
AcDbXrecord
280
     1
  1
к
  1
к-*
  1
*
  1
*
 70
     0
  1
*
  1
*
  0
XRECORD
  5
1D9
102
{ACAD_REACTORS
330
45
102
}
330
45
100
AcDbXrecord
280
     1
  1
перегородки
  1
*перегород*
  1
*
  1
*
 70
     0
  1
*
  1
*
  0
XRECORD
  5
1DA
102
{ACAD_REACTORS
330
45
102
}
330
45
100
AcDbXrecord
280
     1
  1
イベント給水
  1
*い*
  1
*
  1
*
 70
     0
  1
*
  1
*
  0
XRECORD
  5
1DB
102
{ACAD_REACTORS
330
45
102
}
330
45
100
AcDbXrecord
280
     1
  1
ガラス
  1
*HMOJI
  1
*
  1
*
 70
     0
  1
*
  1
*
  0
XRECORD
  5
1DC
102
{ACAD_REACTORS
330
45
102
}
330
45
100
AcDbXrecord
280
     1
  1
キ-プラン
  1
*HMOJI,*HOJO2,*HOJO4,*SINSEI
  1
*
  1
*
 70
     0
  1
*
  1
*
  0
XRECORD
  5
1DD
102
{ACAD_REACTORS
330
45
102
}
330
45
100
AcDbXrecord
280
     1
  1
キープラン
  1
キープラン*
  1
*
  1
*
 70
     0
  1
*
  1
*
  0
XRECORD
  5
1DE
102
{ACAD_REACTORS
330
45
102
}
330
45
100
AcDbXrecord
280
     1
  1
さーくる
  1
*
  1
*
  1
*
 70
     0
  1
*
  1
*
  0
XRECORD
  5
1DF
102
{ACAD_REACTORS
330
45
102
}
330
45
100
AcDbXrecord
280
     1
  1
シェルター
  1
シェルター*
  1
*
  1
*
 70
     0
  1
*
  1
*
  0
XRECORD
  5
1E0
102
{ACAD_REACTORS
330
45
102
}
330
45
100
AcDbXrecord
280
     1
  1
すべてに反映
  1
*す*
  1
*
  1
*
 70
     0
  1
*
  1
*
  0
XRECORD
  5
1E1
102
{ACAD_REACTORS
330
45
102
}
330
45
100
AcDbXrecord
280
     1
  1
スロープ
  1
SL*
  1
*
  1
*
 70
     0
  1
*
  1
*
  0
XRECORD
  5
1E2
102
{ACAD_REACTORS
330
45
102
}
330
45
100
AcDbXrecord
280
     1
  1
タイル割付平面図
  1
タイル*
  1
*
  1
*
 70
     0
  1
*
  1
*
  0
XRECORD
  5
1E3
102
{ACAD_REACTORS
330
45
102
}
330
45
100
AcDbXrecord
280
     1
  1
ﾃｷｽﾄのみ表示
  1
*NZ5-TEXT
  1
*
  1
*
 70
     0
  1
*
  1
*
  0
XRECORD
  5
1E4
102
{ACAD_REACTORS
330
45
102
}
330
45
100
AcDbXrecord
280
     1
  1
ハッチング
  1
*ハッチング
  1
*
  1
*
 70
     0
  1
*
  1
*
  0
XRECORD
  5
1E5
102
{ACAD_REACTORS
330
45
102
}
330
45
100
AcDbXrecord
280
     1
  1
フリーズ
  1
*
  1
*
  1
*
 70
     4
  1
*
  1
*
  0
XRECORD
  5
1E6
102
{ACAD_REACTORS
330
45
102
}
330
45
100
AcDbXrecord
280
     1
  1
フリーズof
  1
*
  1
*
  1
*
 70
    12
  1
*
  1
*
  0
XRECORD
  5
1E7
102
{ACAD_REACTORS
330
45
102
}
330
45
100
AcDbXrecord
280
     1
  1
ﾌﾘｰｽﾞ画層非表示
  1
*
  1
*
  1
*
 70
    12
  1
*
  1
*
  0
XRECORD
  5
1E8
102
{ACAD_REACTORS
330
45
102
}
330
45
100
AcDbXrecord
280
     1
  1
ﾌﾘｰｽﾞ画面非表示
  1
*
  1
*
  1
*
 70
    12
  1
*
  1
*
  0
XRECORD
  5
1E9
102
{ACAD_REACTORS
330
45
102
}
330
45
100
AcDbXrecord
280
     1
  1
ﾌﾘｰｽﾞ解除
  1
*
  1
*
  1
*
 70
    12
  1
*
  1
*
  0
XRECORD
  5
1EA
102
{ACAD_REACTORS
330
45
102
}
330
45
100
AcDbXrecord
280
     1
  1
フリーズ解除
  1
*
  1
*
  1
*
 70
    12
  1
*
  1
*
  0
XRECORD
  5
1EB
102
{ACAD_REACTORS
330
45
102
}
330
45
100
AcDbXrecord
280
     1
  1
ﾌﾟﾚｾﾞﾝ枠
  1
*|ﾌﾟﾚｾﾞﾝ枠
  1
*
  1
*
 70
     0
  1
*
  1
*
  0
XRECORD
  5
1EC
102
{ACAD_REACTORS
330
45
102
}
330
45
100
AcDbXrecord
280
     1
  1
マーク
  1
*マーク
  1
*
  1
*
 70
     0
  1
*
  1
*
  0
XRECORD
  5
1ED
102
{ACAD_REACTORS
330
45
102
}
330
45
100
AcDbXrecord
280
     1
  1
ﾒｲﾝﾌﾟﾗｻﾞ
  1
*め*
  1
*
  1
*
 70
     0
  1
*
  1
*
  0
XRECORD
  5
1EE
102
{ACAD_REACTORS
330
45
102
}
330
45
100
AcDbXrecord
280
     1
  1
レベル
  1
*た*
  1
*
  1
*
 70
     0
  1
*
  1
*
  0
XRECORD
  5
1EF
102
{ACAD_REACTORS
330
45
102
}
330
45
100
AcDbXrecord
280
     1
  1
ロック
  1
*
  1
*
  1
*
 70
   256
  1
*
  1
*
  0
XRECORD
  5
1F0
102
{ACAD_REACTORS
330
45
102
}
330
45
100
AcDbXrecord
280
     1
  1
一括非表示
  1
*
  1
*
  1
*
 70
     3
  1
*
  1
*
  0
XRECORD
  5
1F1
102
{ACAD_REACTORS
330
45
102
}
330
45
100
AcDbXrecord
280
     1
  1
一般図
  1
hatch
  1
*
  1
*
 70
     7
  1
*
  1
*
  0
XRECORD
  5
1F2
102
{ACAD_REACTORS
330
45
102
}
330
45
100
AcDbXrecord
280
     1
  1
印刷
  1
*
  1
*
  1
*
 70
    13
  1
*
  1
*
  0
XRECORD
  5
1F3
102
{ACAD_REACTORS
330
45
102
}
330
45
100
AcDbXrecord
280
     1
  1
荏原機器
  1
KIKI*
  1
*
  1
*
 70
     0
  1
*
  1
*
  0
XRECORD
  5
1F4
102
{ACAD_REACTORS
330
45
102
}
330
45
100
AcDbXrecord
280
     1
  1
荏原機器基礎
  1
a3*,KIKI*,text*,stage,矢視記号
  1
*
  1
*
 70
     0
  1
*
  1
*
  0
XRECORD
  5
1F5
102
{ACAD_REACTORS
330
45
102
}
330
45
100
AcDbXrecord
280
     1
  1
衛生設備図
  1
001*,002*,004*,005*,007*,010*,039*,040*,041*,042*,043*
  1
*
  1
*
 70
     0
  1
*
  1
*
  0
XRECORD
  5
1F6
102
{ACAD_REACTORS
330
45
102
}
330
45
100
AcDbXrecord
280
     1
  1
黄色
  1
*
  1
YELLOW
  1
*
 70
     0
  1
*
  1
*
  0
XRECORD
  5
1F7
102
{ACAD_REACTORS
330
45
102
}
330
45
100
AcDbXrecord
280
     1
  1
下階
  1
下階*
  1
*
  1
*
 70
     0
  1
*
  1
*
  0
XRECORD
  5
1F8
102
{ACAD_REACTORS
330
45
102
}
330
45
100
AcDbXrecord
280
     1
  1
下地
  1
*-下
  1
*
  1
*
 70
     0
  1
*
  1
*
  0
XRECORD
  5
1F9
102
{ACAD_REACTORS
330
45
102
}
330
45
100
AcDbXrecord
280
     1
  1
外構
  1
外構*
  1
*
  1
*
 70
     0
  1
*
  1
*
  0
XRECORD
  5
1FA
102
{ACAD_REACTORS
330
45
102
}
330
45
100
AcDbXrecord
280
     1
  1
外部参照－建築
  1
A*
  1
9
  1
*
 70
     0
  1
*
  1
*
  0
XRECORD
  5
1FB
102
{ACAD_REACTORS
330
45
102
}
330
45
100
AcDbXrecord
280
     1
  1
外部参照除く
  1
A*
  1
*
  1
*
 70
     0
  1
*
  1
*
  0
XRECORD
  5
1FC
102
{ACAD_REACTORS
330
45
102
}
330
45
100
AcDbXrecord
280
     1
  1
割り付け平面図
  1
*わ*
  1
*
  1
*
 70
     0
  1
*
  1
*
  0
XRECORD
  5
1FD
102
{ACAD_REACTORS
330
45
102
}
330
45
100
AcDbXrecord
280
     1
  1
割付平面図
  1
*わ*
  1
*
  1
*
 70
     0
  1
*
  1
*
  0
XRECORD
  5
1FE
102
{ACAD_REACTORS
330
45
102
}
330
45
100
AcDbXrecord
280
     1
  1
潅水平面
  1
*か*
  1
*
  1
*
 70
     0
  1
*
  1
*
  0
XRECORD
  5
1FF
102
{ACAD_REACTORS
330
45
102
}
330
45
100
AcDbXrecord
280
     1
  1
基
  1
*_基
  1
*
  1
*
 70
     0
  1
*
  1
*
  0
XRECORD
  5
200
102
{ACAD_REACTORS
330
45
102
}
330
45
100
AcDbXrecord
280
     1
  1
基準
  1
基*
  1
*
  1
*
 70
     0
  1
*
  1
*
  0
XRECORD
  5
201
102
{ACAD_REACTORS
330
45
102
}
330
45
100
AcDbXrecord
280
     1
  1
基準階
  1
*基準*
  1
*
  1
*
 70
     0
  1
*
  1
*
  0
XRECORD
  5
202
102
{ACAD_REACTORS
330
45
102
}
330
45
100
AcDbXrecord
280
     1
  1
基礎OFF
  1
+*
  1
*
  1
*
 70
     0
  1
*
  1
*
  0
XRECORD
  5
203
102
{ACAD_REACTORS
330
45
102
}
330
45
100
AcDbXrecord
280
     1
  1
基礎伏
  1
*
  1
*
  1
*
 70
     0
  1
*
  1
*
  0
XRECORD
  5
204
102
{ACAD_REACTORS
330
45
102
}
330
45
100
AcDbXrecord
280
     1
  1
基礎伏図
  1
SIZE,HOJO,ZATU,HATCH,GL-HARI,GL-HASIRA,KISO,KUI,MOJI-K1,GL-FUGO,SUNPO-K1,SUNPO,SUNPO2,SUNPO1,KIJUN3,KIJUN,SIZE
  1
*
  1
*
 70
     0
  1
*
  1
*
  0
XRECORD
  5
205
102
{ACAD_REACTORS
330
45
102
}
330
45
100
AcDbXrecord
280
     1
  1
基盤改良平面図
  1
*き*
  1
*
  1
*
 70
     0
  1
*
  1
*
  0
XRECORD
  5
206
102
{ACAD_REACTORS
330
45
102
}
330
45
100
AcDbXrecord
280
     1
  1
既存杭
  1
既存杭*
  1
*
  1
*
 70
     0
  1
*
  1
*
  0
XRECORD
  5
207
102
{ACAD_REACTORS
330
45
102
}
330
45
100
AcDbXrecord
280
     1
  1
機器
  1
KIKI*
  1
*
  1
*
 70
     0
  1
*
  1
*
  0
XRECORD
  5
208
102
{ACAD_REACTORS
330
45
102
}
330
45
100
AcDbXrecord
280
     1
  1
機器基礎
  1
a3*,KIKI*,text*,stage,矢視記号
  1
*
  1
*
 70
     0
  1
*
  1
*
  0
XRECORD
  5
209
102
{ACAD_REACTORS
330
45
102
}
330
45
100
AcDbXrecord
280
     1
  1
記号
  1
*記号
  1
*
  1
*
 70
     0
  1
*
  1
*
  0
XRECORD
  5
20A
102
{ACAD_REACTORS
330
45
102
}
330
45
100
AcDbXrecord
280
     1
  1
給水設備平面図
  1
*み*
  1
*
  1
*
 70
     0
  1
*
  1
*
  0
XRECORD
  5
20B
102
{ACAD_REACTORS
330
45
102
}
330
45
100
AcDbXrecord
280
     1
  1
給水平面
  1
*き*
  1
*
  1
*
 70
     0
  1
*
  1
*
  0
XRECORD
  5
20C
102
{ACAD_REACTORS
330
45
102
}
330
45
100
AcDbXrecord
280
     1
  1
区画
  1
区画*
  1
*
  1
*
 70
     0
  1
*
  1
*
  0
XRECORD
  5
20D
102
{ACAD_REACTORS
330
45
102
}
330
45
100
AcDbXrecord
280
     1
  1
躯体
  1
*A21*
  1
*
  1
*
 70
     0
  1
*
  1
*
  0
XRECORD
  5
20E
102
{ACAD_REACTORS
330
45
102
}
330
45
100
AcDbXrecord
280
     1
  1
躯体図
  1
D*
  1
*
  1
*
 70
     0
  1
*
  1
*
  0
XRECORD
  5
20F
102
{ACAD_REACTORS
330
45
102
}
330
45
100
AcDbXrecord
280
     1
  1
空調jv
  1
00i*
  1
*
  1
*
 70
     0
  1
*
  1
*
  0
XRECORD
  5
210
102
{ACAD_REACTORS
330
45
102
}
330
45
100
AcDbXrecord
280
     1
  1
空調設備図
  1
001*,002*,004*,005*,007*,010*,033*,034*,035*,036*,037*,038*
  1
*
  1
*
 70
     0
  1
*
  1
*
  0
XRECORD
  5
211
102
{ACAD_REACTORS
330
45
102
}
330
45
100
AcDbXrecord
280
     1
  1
郡川
  1
kijun,kabe,sunpo
  1
*
  1
*
 70
     3
  1
*
  1
*
  0
XRECORD
  5
212
102
{ACAD_REACTORS
330
45
102
}
330
45
100
AcDbXrecord
280
     1
  1
型枠計画図
  1
001*,002*,003*,004*,005*,006*,007*,010*,012*,050*,051*,055*,056*,057*,058*,059*,060*,061*,062*,063*,064*,065*,066*,067*,068*,069*,070*,071*,072*,073*,074*,075*
  1
*
  1
*
 70
     0
  1
*
  1
*
  0
XRECORD
  5
213
102
{ACAD_REACTORS
330
45
102
}
330
45
100
AcDbXrecord
280
     1
  1
計画高平面図
  1
*く*
  1
*
  1
*
 70
     0
  1
*
  1
*
  0
XRECORD
  5
214
102
{ACAD_REACTORS
330
45
102
}
330
45
100
AcDbXrecord
280
     1
  1
計画平面
  1
*け*
  1
*
  1
*
 70
     0
  1
*
  1
*
  0
XRECORD
  5
215
102
{ACAD_REACTORS
330
45
102
}
330
45
100
AcDbXrecord
280
     1
  1
計画平面図
  1
*け*
  1
*
  1
*
 70
     0
  1
*
  1
*
  0
XRECORD
  5
216
102
{ACAD_REACTORS
330
45
102
}
330
45
100
AcDbXrecord
280
     1
  1
劇場ﾌﾟﾗｻﾞ
  1
*え*
  1
*
  1
*
 70
     0
  1
*
  1
*
  0
XRECORD
  5
217
102
{ACAD_REACTORS
330
45
102
}
330
45
100
AcDbXrecord
280
     1
  1
劇場棟
  1
*げ*
  1
*
  1
*
 70
     0
  1
*
  1
*
  0
XRECORD
  5
218
102
{ACAD_REACTORS
330
45
102
}
330
45
100
AcDbXrecord
280
     1
  1
建具
  1
*-建
  1
*
  1
*
 70
     0
  1
*
  1
*
  0
XRECORD
  5
219
102
{ACAD_REACTORS
330
45
102
}
330
45
100
AcDbXrecord
280
     1
  1
建築接地図
  1
A01*
  1
*
  1
*
 70
     0
  1
*
  1
*
  0
XRECORD
  5
21A
102
{ACAD_REACTORS
330
45
102
}
330
45
100
AcDbXrecord
280
     1
  1
見上げ
  1
*U
  1
*
  1
*
 70
     0
  1
*
  1
*
  0
XRECORD
  5
21B
102
{ACAD_REACTORS
330
45
102
}
330
45
100
AcDbXrecord
280
     1
  1
現在非表示画層
  1
*
  1
*
  1
*
 70
     3
  1
*
  1
*
  0
XRECORD
  5
21C
102
{ACAD_REACTORS
330
45
102
}
330
45
100
AcDbXrecord
280
     1
  1
光天井
  1
*-光
  1
*
  1
*
 70
     0
  1
*
  1
*
  0
XRECORD
  5
21D
102
{ACAD_REACTORS
330
45
102
}
330
45
100
AcDbXrecord
280
     1
  1
公園
  1
K*
  1
*
  1
*
 70
     0
  1
*
  1
*
  0
XRECORD
  5
21E
102
{ACAD_REACTORS
330
45
102
}
330
45
100
AcDbXrecord
280
     1
  1
工事区分図
  1
*じ*
  1
*
  1
*
 70
     0
  1
*
  1
*
  0
XRECORD
  5
21F
102
{ACAD_REACTORS
330
45
102
}
330
45
100
AcDbXrecord
280
     1
  1
工事区分図AB
  1
*α*
  1
*
  1
*
 70
     0
  1
*
  1
*
  0
XRECORD
  5
220
102
{ACAD_REACTORS
330
45
102
}
330
45
100
AcDbXrecord
280
     1
  1
工事区分図CD
  1
*β*
  1
*
  1
*
 70
     0
  1
*
  1
*
  0
XRECORD
  5
221
102
{ACAD_REACTORS
330
45
102
}
330
45
100
AcDbXrecord
280
     1
  1
高さ
  1
204-TEXT,東西道路*
  1
*
  1
*
 70
     0
  1
*
  1
*
  0
XRECORD
  5
222
102
{ACAD_REACTORS
330
45
102
}
330
45
100
AcDbXrecord
280
     1
  1
高木植栽平面
  1
*こ*
  1
*
  1
*
 70
     0
  1
*
  1
*
  0
XRECORD
  5
223
102
{ACAD_REACTORS
330
45
102
}
330
45
100
AcDbXrecord
280
     1
  1
高木平面図
  1
*こ*
  1
*
  1
*
 70
     0
  1
*
  1
*
  0
XRECORD
  5
224
102
{ACAD_REACTORS
330
45
102
}
330
45
100
AcDbXrecord
280
     1
  1
座席のみ
  1
*
  1
*
  1
*
 70
     0
  1
*
  1
*
  0
XRECORD
  5
225
102
{ACAD_REACTORS
330
45
102
}
330
45
100
AcDbXrecord
280
     1
  1
作業
  1
100-*,地区*,
  1
*
  1
*
 70
     1
  1
*
  1
*
  0
XRECORD
  5
226
102
{ACAD_REACTORS
330
45
102
}
330
45
100
AcDbXrecord
280
     1
  1
参考
  1
六*
  1
*
  1
*
 70
     0
  1
*
  1
*
  0
XRECORD
  5
227
102
{ACAD_REACTORS
330
45
102
}
330
45
100
AcDbXrecord
280
     1
  1
山止根切計画図
  1
001*,002*,003*,004*,005*,007*,012*,049*,050*,051*,052*,053*,054*,055*,056*,057*,058*,059*,060*,061*,062*,064*,065*,066*,067*,068*,069*,070*,071*,072*,073*,074*,075*
  1
*
  1
*
 70
     0
  1
*
  1
*
  0
XRECORD
  5
228
102
{ACAD_REACTORS
330
45
102
}
330
45
100
AcDbXrecord
280
     1
  1
仕
  1
*_仕
  1
*
  1
*
 70
     0
  1
*
  1
*
  0
XRECORD
  5
229
102
{ACAD_REACTORS
330
45
102
}
330
45
100
AcDbXrecord
280
     1
  1
仕上
  1
*-2
  1
*
  1
*
 70
     0
  1
*
  1
*
  0
XRECORD
  5
22A
102
{ACAD_REACTORS
330
45
102
}
330
45
100
AcDbXrecord
280
     1
  1
仕上図
  1
C*
  1
*
  1
*
 70
     0
  1
*
  1
*
  0
XRECORD
  5
22B
102
{ACAD_REACTORS
330
45
102
}
330
45
100
AcDbXrecord
280
     1
  1
使用中
  1
使用中
  1
*
  1
*
 70
     1
  1
*
  1
*
  0
XRECORD
  5
22C
102
{ACAD_REACTORS
330
45
102
}
330
45
100
AcDbXrecord
280
     1
  1
施設配置図
  1
*し*
  1
*
  1
*
 70
     0
  1
*
  1
*
  0
XRECORD
  5
22D
102
{ACAD_REACTORS
330
45
102
}
330
45
100
AcDbXrecord
280
     1
  1
施設平面
  1
*し*
  1
*
  1
*
 70
     0
  1
*
  1
*
  0
XRECORD
  5
22E
102
{ACAD_REACTORS
330
45
102
}
330
45
100
AcDbXrecord
280
     1
  1
施設平面図
  1
*し*
  1
*
  1
*
 70
     0
  1
*
  1
*
  0
XRECORD
  5
22F
102
{ACAD_REACTORS
330
45
102
}
330
45
100
AcDbXrecord
280
     1
  1
紫
  1
*
  1
Magenta
  1
*
 70
     0
  1
*
  1
*
  0
XRECORD
  5
230
102
{ACAD_REACTORS
330
45
102
}
330
45
100
AcDbXrecord
280
     1
  1
床伏図
  1
*U*,20,Z20,Z22,Z23
  1
*
  1
*
 70
     0
  1
*
  1
*
  0
XRECORD
  5
231
102
{ACAD_REACTORS
330
45
102
}
330
45
100
AcDbXrecord
280
     1
  1
昇降機
  1
T*
  1
*
  1
*
 70
     0
  1
*
  1
*
  0
XRECORD
  5
232
102
{ACAD_REACTORS
330
45
102
}
330
45
100
AcDbXrecord
280
     1
  1
照明
  1
*ら*,*れ*
  1
*
  1
*
 70
     0
  1
*
  1
*
  0
XRECORD
  5
233
102
{ACAD_REACTORS
330
45
102
}
330
45
100
AcDbXrecord
280
     1
  1
照明Ｃ１
  1
*ら*
  1
*
  1
*
 70
     0
  1
*
  1
*
  0
XRECORD
  5
234
102
{ACAD_REACTORS
330
45
102
}
330
45
100
AcDbXrecord
280
     1
  1
照明Ｃ２
  1
*れ*
  1
*
  1
*
 70
     0
  1
*
  1
*
  0
XRECORD
  5
235
102
{ACAD_REACTORS
330
45
102
}
330
45
100
AcDbXrecord
280
     1
  1
照明配置図
  1
*め*
  1
*
  1
*
 70
     0
  1
*
  1
*
  0
XRECORD
  5
236
102
{ACAD_REACTORS
330
45
102
}
330
45
100
AcDbXrecord
280
     1
  1
詳細
  1
詳細*
  1
*
  1
*
 70
     0
  1
*
  1
*
  0
XRECORD
  5
237
102
{ACAD_REACTORS
330
45
102
}
330
45
100
AcDbXrecord
280
     1
  1
詳細図
  1
*u*,*w*,*y*,*x*,*s*,*V*,06
  1
*
  1
*
 70
     0
  1
*
  1
*
  0
XRECORD
  5
238
102
{ACAD_REACTORS
330
45
102
}
330
45
100
AcDbXrecord
280
     1
  1
上階躯体図
  1
KUTAI-Z,SIZE,HOJO,ZATU,HATCH,BR-S,KABE2,KABE,MAJIKIRI,KOBARI-S,KOBARI-R,HARI-S,HARI-R,HASIRA-S,HASIRA-R,MOJI-K2,FL-FUGO,FUGO-W,SUNPO-K2,SUNPO,SUNPO2,SUNPO1,KIJUN2,KIJUN1,KIJUN,
  1
*
  1
*
 70
     0
  1
*
  1
*
  0
XRECORD
  5
239
102
{ACAD_REACTORS
330
45
102
}
330
45
100
AcDbXrecord
280
     1
  1
植栽
  1
*木*
  1
*
  1
*
 70
     0
  1
*
  1
*
  0
XRECORD
  5
23A
102
{ACAD_REACTORS
330
45
102
}
330
45
100
AcDbXrecord
280
     1
  1
植栽基盤平面
  1
*ど*
  1
*
  1
*
 70
     0
  1
*
  1
*
  0
XRECORD
  5
23B
102
{ACAD_REACTORS
330
45
102
}
330
45
100
AcDbXrecord
280
     1
  1
植栽現況
  1
*植*
  1
*
  1
*
 70
     0
  1
*
  1
*
  0
XRECORD
  5
23C
102
{ACAD_REACTORS
330
45
102
}
330
45
100
AcDbXrecord
280
     1
  1
植栽高木AB
  1
*λ*
  1
*
  1
*
 70
     0
  1
*
  1
*
  0
XRECORD
  5
23D
102
{ACAD_REACTORS
330
45
102
}
330
45
100
AcDbXrecord
280
     1
  1
植栽高木CD
  1
*ｑ*
  1
*
  1
*
 70
     0
  1
*
  1
*
  0
XRECORD
  5
23E
102
{ACAD_REACTORS
330
45
102
}
330
45
100
AcDbXrecord
280
     1
  1
植栽低木AB
  1
*γ*
  1
*
  1
*
 70
     0
  1
*
  1
*
  0
XRECORD
  5
23F
102
{ACAD_REACTORS
330
45
102
}
330
45
100
AcDbXrecord
280
     1
  1
植栽低木ＣＤ
  1
*Θ*
  1
*
  1
*
 70
     0
  1
*
  1
*
  0
XRECORD
  5
240
102
{ACAD_REACTORS
330
45
102
}
330
45
100
AcDbXrecord
280
     1
  1
色番号8
  1
*
  1
8
  1
*
 70
     0
  1
*
  1
*
  0
XRECORD
  5
241
102
{ACAD_REACTORS
330
45
102
}
330
45
100
AcDbXrecord
280
     1
  1
申請用
  1
*あ*,*き*,*グ*,*み*,*オ*,*ピ*,*92*
  1
*
  1
*
 70
     0
  1
*
  1
*
  0
XRECORD
  5
242
102
{ACAD_REACTORS
330
45
102
}
330
45
100
AcDbXrecord
280
     1
  1
芯
  1
*芯
  1
*
  1
*
 70
     0
  1
*
  1
*
  0
XRECORD
  5
243
102
{ACAD_REACTORS
330
45
102
}
330
45
100
AcDbXrecord
280
     1
  1
芯関係
  1
001*,002*,032*
  1
*
  1
*
 70
     0
  1
*
  1
*
  0
XRECORD
  5
244
102
{ACAD_REACTORS
330
45
102
}
330
45
100
AcDbXrecord
280
     1
  1
水
  1
*
  1
cyan
  1
*
 70
     0
  1
*
  1
*
  0
XRECORD
  5
245
102
{ACAD_REACTORS
330
45
102
}
330
45
100
AcDbXrecord
280
     1
  1
水色
  1
*
  1
Cyan
  1
*
 70
     0
  1
*
  1
*
  0
XRECORD
  5
246
102
{ACAD_REACTORS
330
45
102
}
330
45
100
AcDbXrecord
280
     1
  1
寸法
  1
*寸法
  1
*
  1
*
 70
     0
  1
*
  1
*
  0
XRECORD
  5
247
102
{ACAD_REACTORS
330
45
102
}
330
45
100
AcDbXrecord
280
     1
  1
製作
  1
B*
  1
*
  1
*
 70
     0
  1
*
  1
*
  0
XRECORD
  5
248
102
{ACAD_REACTORS
330
45
102
}
330
45
100
AcDbXrecord
280
     1
  1
製作-躯体
  1
BS*
  1
*
  1
*
 70
     0
  1
*
  1
*
  0
XRECORD
  5
249
102
{ACAD_REACTORS
330
45
102
}
330
45
100
AcDbXrecord
280
     1
  1
製作-建築
  1
BD*
  1
*
  1
*
 70
     0
  1
*
  1
*
  0
XRECORD
  5
24A
102
{ACAD_REACTORS
330
45
102
}
330
45
100
AcDbXrecord
280
     1
  1
製作-昇降機
  1
BT*
  1
*
  1
*
 70
     0
  1
*
  1
*
  0
XRECORD
  5
24B
102
{ACAD_REACTORS
330
45
102
}
330
45
100
AcDbXrecord
280
     1
  1
青
  1
*
  1
blue
  1
*
 70
     0
  1
*
  1
*
  0
XRECORD
  5
24C
102
{ACAD_REACTORS
330
45
102
}
330
45
100
AcDbXrecord
280
     1
  1
設備
  1
E*,P*,M*
  1
*
  1
*
 70
     0
  1
*
  1
*
  0
XRECORD
  5
24D
102
{ACAD_REACTORS
330
45
102
}
330
45
100
AcDbXrecord
280
     1
  1
設備プロット
  1
02*
  1
*
  1
*
 70
     0
  1
*
  1
*
  0
XRECORD
  5
24E
102
{ACAD_REACTORS
330
45
102
}
330
45
100
AcDbXrecord
280
     1
  1
全階平面図
  1
*
  1
*
  1
*
 70
     0
  1
*
  1
*
  0
XRECORD
  5
24F
102
{ACAD_REACTORS
330
45
102
}
330
45
100
AcDbXrecord
280
     1
  1
総合仮設図
  1
001*,002*,003*,004*,005*,007*,012*,015*,016*,017*,018*,019*,020*,021*,049*,050*,051*,052*,053*,054*,055*,056*,057*,058*,059*,060*,061*,062*,063*,064*,065*,066*,067*,068*,069*,070*,071*,072*,073*,074*,075*
  1
*
  1
*
 70
     0
  1
*
  1
*
  0
XRECORD
  5
250
102
{ACAD_REACTORS
330
45
102
}
330
45
100
AcDbXrecord
280
     1
  1
総合図
  1
*z*,*u*,*w*,*y*,*x*,*V*,06
  1
*
  1
*
 70
     0
  1
*
  1
*
  0
XRECORD
  5
251
102
{ACAD_REACTORS
330
45
102
}
330
45
100
AcDbXrecord
280
     1
  1
足場計画図
  1
001*,002*,003*,004*,005*,007*,012*,015*,049*,050*,051*,055*,056*,057*,058*,059*,060*,061*,062*,064*,065*,066*,067*,068*,069*,070*,071*,072*,073*,074*,075*
  1
*
  1
*
 70
     0
  1
*
  1
*
  0
XRECORD
  5
252
102
{ACAD_REACTORS
330
45
102
}
330
45
100
AcDbXrecord
280
     1
  1
地下埋設
  1
*ち*
  1
*
  1
*
 70
     0
  1
*
  1
*
  0
XRECORD
  5
253
102
{ACAD_REACTORS
330
45
102
}
330
45
100
AcDbXrecord
280
     1
  1
中野
  1
中野*
  1
*
  1
*
 70
     0
  1
*
  1
*
  0
XRECORD
  5
254
102
{ACAD_REACTORS
330
45
102
}
330
45
100
AcDbXrecord
280
     1
  1
低木植栽平面
  1
*て*
  1
*
  1
*
 70
     0
  1
*
  1
*
  0
XRECORD
  5
255
102
{ACAD_REACTORS
330
45
102
}
330
45
100
AcDbXrecord
280
     1
  1
低木平面図
  1
*て*
  1
*
  1
*
 70
     0
  1
*
  1
*
  0
XRECORD
  5
256
102
{ACAD_REACTORS
330
45
102
}
330
45
100
AcDbXrecord
280
     1
  1
鉄骨
  1
*-1
  1
*
  1
*
 70
     0
  1
*
  1
*
  0
XRECORD
  5
257
102
{ACAD_REACTORS
330
45
102
}
330
45
100
AcDbXrecord
280
     1
  1
鉄骨建方計画図
  1
001*,002*,003*,004*,005*,007*,012*,013*,049*,050*,051*,052*,053*,054*,055*,056*,057*,058*,059*,060*,061*,062*,063*,064*,065*,066*,067*,068*,069*,070*,071*,072*,073*,074*,075*
  1
*
  1
*
 70
     0
  1
*
  1
*
  0
XRECORD
  5
258
102
{ACAD_REACTORS
330
45
102
}
330
45
100
AcDbXrecord
280
     1
  1
天井インサート図
  1
001*,002*,004*,010*,022*,023*,024*,025*,026*,027*,028*,029*,037*,042*
  1
*
  1
*
 70
     0
  1
*
  1
*
  0
XRECORD
  5
259
102
{ACAD_REACTORS
330
45
102
}
330
45
100
AcDbXrecord
280
     1
  1
天井総合図
  1
001*,002*,004*,005*,007*,010*,022*,023*,024*,025*,026*,027*,028*,029*,030*,031*,033*,035*,036*,037*,039*,041*,042*,044*,046*,047*
  1
*
  1
*
 70
     0
  1
*
  1
*
  0
XRECORD
  5
25A
102
{ACAD_REACTORS
330
45
102
}
330
45
100
AcDbXrecord
280
     1
  1
天井伏図
  1
0,00*,01*,03*,05*,1*,2*,3*,4*,7*,9*
  1
*
  1
*
 70
     0
  1
*
  1
*
  0
XRECORD
  5
25B
102
{ACAD_REACTORS
330
45
102
}
330
45
100
AcDbXrecord
280
     1
  1
天伏
  1
*05
  1
*
  1
*
 70
     0
  1
*
  1
*
  0
XRECORD
  5
25C
102
{ACAD_REACTORS
330
45
102
}
330
45
100
AcDbXrecord
280
     1
  1
電気設備図
  1
001*,002*,004*,005*,007*,010*,030*,031*,044*,045*,046*,047*,048*
  1
*
  1
*
 70
     0
  1
*
  1
*
  0
XRECORD
  5
25D
102
{ACAD_REACTORS
330
45
102
}
330
45
100
AcDbXrecord
280
     1
  1
土壌改良
  1
*ど*
  1
*
  1
*
 70
     0
  1
*
  1
*
  0
XRECORD
  5
25E
102
{ACAD_REACTORS
330
45
102
}
330
45
100
AcDbXrecord
280
     1
  1
土木計画平面図
  1
*^ *,*B*,*0*,*排*,*法*,*ﾊ*,*b*
  1
*
  1
*
 70
     0
  1
*
  1
*
  0
XRECORD
  5
25F
102
{ACAD_REACTORS
330
45
102
}
330
45
100
AcDbXrecord
280
     1
  1
道路
  1
R*
  1
*
  1
*
 70
     0
  1
*
  1
*
  0
XRECORD
  5
260
102
{ACAD_REACTORS
330
45
102
}
330
45
100
AcDbXrecord
280
     1
  1
道路関係図
  1
001*,002*,003*,004*,007*,012*,015*,016*,017*,018*,019*,020*,021*,049*,050*,051*,052*,053*,054*,055*,056*,057*,058*,059*,060*,061*,062*,063*,064*,065*,066*,067*,068*,069*,070*,071*,072*,073*,074*,075*
  1
*
  1
*
 70
     0
  1
*
  1
*
  0
XRECORD
  5
261
102
{ACAD_REACTORS
330
45
102
}
330
45
100
AcDbXrecord
280
     1
  1
排水
  1
*は*
  1
*
  1
*
 70
     0
  1
*
  1
*
  0
XRECORD
  5
262
102
{ACAD_REACTORS
330
45
102
}
330
45
100
AcDbXrecord
280
     1
  1
排水設備平面図
  1
*は*
  1
*
  1
*
 70
     0
  1
*
  1
*
  0
XRECORD
  5
263
102
{ACAD_REACTORS
330
45
102
}
330
45
100
AcDbXrecord
280
     1
  1
排水平面
  1
*は*
  1
*
  1
*
 70
     0
  1
*
  1
*
  0
XRECORD
  5
264
102
{ACAD_REACTORS
330
45
102
}
330
45
100
AcDbXrecord
280
     1
  1
配管
  1
PIPE*
  1
*
  1
*
 70
     0
  1
*
  1
*
  0
XRECORD
  5
265
102
{ACAD_REACTORS
330
45
102
}
330
45
100
AcDbXrecord
280
     1
  1
非表示
  1
*
  1
*
  1
*
 70
     3
  1
*
  1
*
  0
XRECORD
  5
266
102
{ACAD_REACTORS
330
45
102
}
330
45
100
AcDbXrecord
280
     1
  1
非表示ﾚｲﾔｰ
  1
*-z
  1
*
  1
*
 70
     0
  1
*
  1
*
  0
XRECORD
  5
267
102
{ACAD_REACTORS
330
45
102
}
330
45
100
AcDbXrecord
280
     1
  1
表示
  1
*
  1
*
  1
*
 70
     1
  1
*
  1
*
  0
XRECORD
  5
268
102
{ACAD_REACTORS
330
45
102
}
330
45
100
AcDbXrecord
280
     1
  1
表示・非表示
  1
*
  1
*
  1
*
 70
     1
  1
*
  1
*
  0
XRECORD
  5
269
102
{ACAD_REACTORS
330
45
102
}
330
45
100
AcDbXrecord
280
     1
  1
表示2
  1
*
  1
*
  1
*
 70
   257
  1
*
  1
*
  0
XRECORD
  5
26A
102
{ACAD_REACTORS
330
45
102
}
330
45
100
AcDbXrecord
280
     1
  1
分割枠
  1
枠*
  1
*
  1
*
 70
     0
  1
*
  1
*
  0
XRECORD
  5
26B
102
{ACAD_REACTORS
330
45
102
}
330
45
100
AcDbXrecord
280
     1
  1
平面詳細図
  1
SUNPO-S,SIZE,HOJO,ZATU,HATCH,HWAKU,HMOJI,WARITUKE-T,WARITUKE-Y,WARITUKE-K,TATEGU1,TATEGU,BR-S,MAJIKIRI,KABE2,SIAGE,KABE1,KABE,KOBARI-S,KOBARI-R,HARI-S,HARI-R,HASIRA-S,HASIRA-R,MOJI,SHITUMEI,LABEL,FL-FUGO,FUGO-W,SUNPO,SUNPO2,SUNPO1,KIJUN2,KIJUN1,KIJUN
  1
*
  1
*
 70
     0
  1
*
  1
*
  0
XRECORD
  5
26C
102
{ACAD_REACTORS
330
45
102
}
330
45
100
AcDbXrecord
280
     1
  1
平面図
  1
*HMOJI,*HOJO2,*HOJO3,*SINSEI,*FUGOT
  1
*
  1
*
 70
     0
  1
*
  1
*
  0
XRECORD
  5
26D
102
{ACAD_REACTORS
330
45
102
}
330
45
100
AcDbXrecord
280
     1
  1
平面総合図
  1
001*,002*,004*,010*,013*,014*,015*,016*,017*,018*,019*,020*,021*,030*,031*,034*,040*,045*
  1
*
  1
*
 70
     0
  1
*
  1
*
  0
XRECORD
  5
26E
102
{ACAD_REACTORS
330
45
102
}
330
45
100
AcDbXrecord
280
     1
  1
変更分
  1
六*
  1
*
  1
*
 70
     0
  1
*
  1
*
  0
XRECORD
  5
26F
102
{ACAD_REACTORS
330
45
102
}
330
45
100
AcDbXrecord
280
     1
  1
舗装平面
  1
*ほ*
  1
*
  1
*
 70
     0
  1
*
  1
*
  0
XRECORD
  5
270
102
{ACAD_REACTORS
330
45
102
}
330
45
100
AcDbXrecord
280
     1
  1
舗装平面C1
  1
*α*
  1
*
  1
*
 70
     0
  1
*
  1
*
  0
XRECORD
  5
271
102
{ACAD_REACTORS
330
45
102
}
330
45
100
AcDbXrecord
280
     1
  1
舗装平面C2
  1
*β*
  1
*
  1
*
 70
     0
  1
*
  1
*
  0
XRECORD
  5
272
102
{ACAD_REACTORS
330
45
102
}
330
45
100
AcDbXrecord
280
     1
  1
舗装平面図
  1
*ほ*
  1
*
  1
*
 70
     0
  1
*
  1
*
  0
XRECORD
  5
273
102
{ACAD_REACTORS
330
45
102
}
330
45
100
AcDbXrecord
280
     1
  1
法規チェック－区画
  1
*92
  1
*
  1
*
 70
     0
  1
*
  1
*
  0
XRECORD
  5
274
102
{ACAD_REACTORS
330
45
102
}
330
45
100
AcDbXrecord
280
     1
  1
法規チェック－範囲
  1
*0
  1
*
  1
*
 70
     0
  1
*
  1
*
  0
XRECORD
  5
275
102
{ACAD_REACTORS
330
45
102
}
330
45
100
AcDbXrecord
280
     1
  1
鳳文字入力
  1
*
  1
*
  1
*
 70
     0
  1
*
  1
*
  0
XRECORD
  5
276
102
{ACAD_REACTORS
330
45
102
}
330
45
100
AcDbXrecord
280
     1
  1
防災
  1
B*
  1
*
  1
*
 70
   768
  1
*
  1
*
  0
XRECORD
  5
277
102
{ACAD_REACTORS
330
45
102
}
330
45
100
AcDbXrecord
280
     1
  1
名称
  1
*名称
  1
*
  1
*
 70
     0
  1
*
  1
*
  0
XRECORD
  5
278
102
{ACAD_REACTORS
330
45
102
}
330
45
100
AcDbXrecord
280
     1
  1
面積
  1
*
  1
*
  1
*
 70
     3
  1
*
  1
*
  0
XRECORD
  5
279
102
{ACAD_REACTORS
330
45
102
}
330
45
100
AcDbXrecord
280
     1
  1
擁壁平面図
  1
*よ*
  1
*
  1
*
 70
     0
  1
*
  1
*
  0
XRECORD
  5
27A
102
{ACAD_REACTORS
330
45
102
}
330
45
100
AcDbXrecord
280
     1
  1
用途色塗
  1
*1-*
  1
*
  1
*
 70
     0
  1
*
  1
*
  0
XRECORD
  5
27B
102
{ACAD_REACTORS
330
45
102
}
330
45
100
AcDbXrecord
280
     1
  1
立面図
  1
*HOJO2
  1
*
  1
*
 70
     0
  1
*
  1
*
  0
XRECORD
  5
27C
102
{ACAD_REACTORS
330
45
102
}
330
45
100
AcDbXrecord
280
     1
  1
梁
  1
0,08*,17*,梁*
  1
*
  1
*
 70
     0
  1
*
  1
*
  0
XRECORD
  5
27D
102
{ACAD_REACTORS
330
45
102
}
330
45
100
AcDbXrecord
280
     1
  1
緑
  1
*
  1
Green
  1
*
 70
     0
  1
*
  1
*
  0
ENDSEC
  0
EOF
